  0
SECTION
  2
HEADER
  9
$ACADVER
  1
AC1027
  9
$ACADMAINTVER
 70
   125
  9
$DWGCODEPAGE
  3
ANSI_1252
  9
$LASTSAVEDBY
  1
nochamo
  9
$REQUIREDVERSIONS
160
                 0
  9
$INSBASE
 10
0.0
 20
0.0
 30
0.0
  9
$EXTMIN
 10
-251.541346
 20
-43.07543468637471
 30
0.0
  9
$EXTMAX
 10
856.8813631757871
 20
451.844459531952
 30
0.0
  9
$LIMMIN
 10
0.0
 20
0.0
  9
$LIMMAX
 10
420.0
 20
297.0
  9
$ORTHOMODE
 70
     0
  9
$REGENMODE
 70
     1
  9
$FILLMODE
 70
     1
  9
$QTEXTMODE
 70
     0
  9
$MIRRTEXT
 70
     0
  9
$LTSCALE
 40
1.0
  9
$ATTMODE
 70
     1
  9
$TEXTSIZE
 40
2.5
  9
$TRACEWID
 40
1.0
  9
$TEXTSTYLE
  7
Standard
  9
$CLAYER
  8
0
  9
$CELTYPE
  6
ByLayer
  9
$CECOLOR
 62
   256
  9
$CELTSCALE
 40
1.0
  9
$DISPSILH
 70
     0
  9
$DIMSCALE
 40
1.0
  9
$DIMASZ
 40
2.5
  9
$DIMEXO
 40
0.625
  9
$DIMDLI
 40
3.75
  9
$DIMRND
 40
0.0
  9
$DIMDLE
 40
0.0
  9
$DIMEXE
 40
1.25
  9
$DIMTP
 40
0.0
  9
$DIMTM
 40
0.0
  9
$DIMTXT
 40
2.5
  9
$DIMCEN
 40
2.5
  9
$DIMTSZ
 40
0.0
  9
$DIMTOL
 70
     0
  9
$DIMLIM
 70
     0
  9
$DIMTIH
 70
     0
  9
$DIMTOH
 70
     0
  9
$DIMSE1
 70
     0
  9
$DIMSE2
 70
     0
  9
$DIMTAD
 70
     1
  9
$DIMZIN
 70
     8
  9
$DIMBLK
  1

  9
$DIMASO
 70
     1
  9
$DIMSHO
 70
     1
  9
$DIMPOST
  1

  9
$DIMAPOST
  1

  9
$DIMALT
 70
     0
  9
$DIMALTD
 70
     3
  9
$DIMALTF
 40
0.03937
  9
$DIMLFAC
 40
1.0
  9
$DIMTOFL
 70
     1
  9
$DIMTVP
 40
0.0
  9
$DIMTIX
 70
     0
  9
$DIMSOXD
 70
     0
  9
$DIMSAH
 70
     0
  9
$DIMBLK1
  1

  9
$DIMBLK2
  1

  9
$DIMSTYLE
  2
ISO-25
  9
$DIMCLRD
 70
     0
  9
$DIMCLRE
 70
     0
  9
$DIMCLRT
 70
     0
  9
$DIMTFAC
 40
1.0
  9
$DIMGAP
 40
0.625
  9
$DIMJUST
 70
     0
  9
$DIMSD1
 70
     0
  9
$DIMSD2
 70
     0
  9
$DIMTOLJ
 70
     0
  9
$DIMTZIN
 70
     8
  9
$DIMALTZ
 70
     0
  9
$DIMALTTZ
 70
     0
  9
$DIMUPT
 70
     0
  9
$DIMDEC
 70
     2
  9
$DIMTDEC
 70
     2
  9
$DIMALTU
 70
     2
  9
$DIMALTTD
 70
     3
  9
$DIMTXSTY
  7
Standard
  9
$DIMAUNIT
 70
     0
  9
$DIMADEC
 70
     0
  9
$DIMALTRND
 40
0.0
  9
$DIMAZIN
 70
     0
  9
$DIMDSEP
 70
    44
  9
$DIMATFIT
 70
     3
  9
$DIMFRAC
 70
     0
  9
$DIMLDRBLK
  1

  9
$DIMLUNIT
 70
     2
  9
$DIMLWD
 70
    -2
  9
$DIMLWE
 70
    -2
  9
$DIMTMOVE
 70
     0
  9
$DIMFXL
 40
1.0
  9
$DIMFXLON
 70
     0
  9
$DIMJOGANG
 40
0.7853979999999999
  9
$DIMTFILL
 70
     0
  9
$DIMTFILLCLR
 70
     0
  9
$DIMARCSYM
 70
     0
  9
$DIMLTYPE
  6

  9
$DIMLTEX1
  6

  9
$DIMLTEX2
  6

  9
$DIMTXTDIRECTION
 70
     0
  9
$LUNITS
 70
     2
  9
$LUPREC
 70
     4
  9
$SKETCHINC
 40
1.0
  9
$FILLETRAD
 40
1.0
  9
$AUNITS
 70
     0
  9
$AUPREC
 70
     0
  9
$MENU
  1
.
  9
$ELEVATION
 40
0.0
  9
$PELEVATION
 40
0.0
  9
$THICKNESS
 40
0.0
  9
$LIMCHECK
 70
     0
  9
$CHAMFERA
 40
0.0
  9
$CHAMFERB
 40
0.0
  9
$CHAMFERC
 40
0.0
  9
$CHAMFERD
 40
0.0
  9
$SKPOLY
 70
     0
  9
$TDCREATE
 40
2459766.843263889
  9
$TDUCREATE
 40
2459766.759930556
  9
$TDUPDATE
 40
2459928.925590278
  9
$TDUUPDATE
 40
2459928.883923611
  9
$TDINDWG
 40
0.1924421296
  9
$TDUSRTIMER
 40
0.1924421296
  9
$USRTIMER
 70
     1
  9
$ANGBASE
 50
0.0
  9
$ANGDIR
 70
     0
  9
$PDMODE
 70
     0
  9
$PDSIZE
 40
0.0
  9
$PLINEWID
 40
0.0
  9
$SPLFRAME
 70
     0
  9
$SPLINETYPE
 70
     6
  9
$SPLINESEGS
 70
     8
  9
$HANDSEED
  5
3FE7
  9
$SURFTAB1
 70
     6
  9
$SURFTAB2
 70
     6
  9
$SURFTYPE
 70
     6
  9
$SURFU
 70
     6
  9
$SURFV
 70
     6
  9
$UCSBASE
  2

  9
$UCSNAME
  2

  9
$UCSORG
 10
0.0
 20
0.0
 30
0.0
  9
$UCSXDIR
 10
1.0
 20
0.0
 30
0.0
  9
$UCSYDIR
 10
0.0
 20
1.0
 30
0.0
  9
$UCSORTHOREF
  2

  9
$UCSORTHOVIEW
 70
     0
  9
$UCSORGTOP
 10
0.0
 20
0.0
 30
0.0
  9
$UCSORGBOTTOM
 10
0.0
 20
0.0
 30
0.0
  9
$UCSORGLEFT
 10
0.0
 20
0.0
 30
0.0
  9
$UCSORGRIGHT
 10
0.0
 20
0.0
 30
0.0
  9
$UCSORGFRONT
 10
0.0
 20
0.0
 30
0.0
  9
$UCSORGBACK
 10
0.0
 20
0.0
 30
0.0
  9
$PUCSBASE
  2

  9
$PUCSNAME
  2

  9
$PUCSORG
 10
0.0
 20
0.0
 30
0.0
  9
$PUCSXDIR
 10
1.0
 20
0.0
 30
0.0
  9
$PUCSYDIR
 10
0.0
 20
1.0
 30
0.0
  9
$PUCSORTHOREF
  2

  9
$PUCSORTHOVIEW
 70
     0
  9
$PUCSORGTOP
 10
0.0
 20
0.0
 30
0.0
  9
$PUCSORGBOTTOM
 10
0.0
 20
0.0
 30
0.0
  9
$PUCSORGLEFT
 10
0.0
 20
0.0
 30
0.0
  9
$PUCSORGRIGHT
 10
0.0
 20
0.0
 30
0.0
  9
$PUCSORGFRONT
 10
0.0
 20
0.0
 30
0.0
  9
$PUCSORGBACK
 10
0.0
 20
0.0
 30
0.0
  9
$USERI1
 70
     0
  9
$USERI2
 70
     0
  9
$USERI3
 70
     0
  9
$USERI4
 70
     0
  9
$USERI5
 70
     0
  9
$USERR1
 40
0.0
  9
$USERR2
 40
0.0
  9
$USERR3
 40
0.0
  9
$USERR4
 40
0.0
  9
$USERR5
 40
0.0
  9
$WORLDVIEW
 70
     1
  9
$SHADEDGE
 70
     3
  9
$SHADEDIF
 70
    70
  9
$TILEMODE
 70
     1
  9
$MAXACTVP
 70
    64
  9
$PINSBASE
 10
0.0
 20
0.0
 30
0.0
  9
$PLIMCHECK
 70
     0
  9
$PEXTMIN
 10
0.0
 20
0.0
 30
0.0
  9
$PEXTMAX
 10
0.0
 20
0.0
 30
0.0
  9
$PLIMMIN
 10
0.0
 20
0.0
  9
$PLIMMAX
 10
12.0
 20
9.0
  9
$UNITMODE
 70
     0
  9
$VISRETAIN
 70
     1
  9
$PLINEGEN
 70
     0
  9
$PSLTSCALE
 70
     0
  9
$TREEDEPTH
 70
  3020
  9
$CMLSTYLE
  2
Standard
  9
$CMLJUST
 70
     0
  9
$CMLSCALE
 40
20.0
  9
$PROXYGRAPHICS
 70
     1
  9
$MEASUREMENT
 70
     1
  9
$CELWEIGHT
370
    -1
  9
$ENDCAPS
280
     0
  9
$JOINSTYLE
280
     0
  9
$LWDISPLAY
290
     0
  9
$INSUNITS
 70
     4
  9
$HYPERLINKBASE
  1

  9
$STYLESHEET
  1

  9
$XEDIT
290
     1
  9
$CEPSNTYPE
380
     0
  9
$PSTYLEMODE
290
     1
  9
$FINGERPRINTGUID
  2
{499E00C5-CF63-B547-B52A-579179B7248D}
  9
$VERSIONGUID
  2
{98AC3050-465A-D041-AD3E-6C7C23E619FB}
  9
$EXTNAMES
290
     1
  9
$PSVPSCALE
 40
0.0
  9
$OLESTARTUP
290
     0
  9
$SORTENTS
280
   127
  9
$INDEXCTL
280
     0
  9
$HIDETEXT
280
     1
  9
$XCLIPFRAME
280
     2
  9
$HALOGAP
280
     0
  9
$OBSCOLOR
 70
   257
  9
$OBSLTYPE
280
     0
  9
$INTERSECTIONDISPLAY
280
     0
  9
$INTERSECTIONCOLOR
 70
   257
  9
$DIMASSOC
280
     2
  9
$PROJECTNAME
  1

  9
$CAMERADISPLAY
290
     0
  9
$LENSLENGTH
 40
50.0
  9
$CAMERAHEIGHT
 40
0.0
  9
$STEPSPERSEC
 40
2.0
  9
$STEPSIZE
 40
6.0
  9
$3DDWFPREC
 40
2.0
  9
$PSOLWIDTH
 40
5.0
  9
$PSOLHEIGHT
 40
80.0
  9
$LOFTANG1
 40
1.570795999999999
  9
$LOFTANG2
 40
1.570795999999999
  9
$LOFTMAG1
 40
0.0
  9
$LOFTMAG2
 40
0.0
  9
$LOFTPARAM
 70
     7
  9
$LOFTNORMALS
280
     1
  9
$LATITUDE
 40
37.795
  9
$LONGITUDE
 40
-122.394
  9
$NORTHDIRECTION
 40
0.0
  9
$TIMEZONE
 70
 -8000
  9
$LIGHTGLYPHDISPLAY
280
     1
  9
$TILEMODELIGHTSYNCH
280
     1
  9
$CMATERIAL
347
EC
  9
$SOLIDHIST
280
     0
  9
$SHOWHIST
280
     1
  9
$DWFFRAME
280
     2
  9
$DGNFRAME
280
     0
  9
$REALWORLDSCALE
290
     1
  9
$INTERFERECOLOR
 62
     1
  9
$INTERFEREOBJVS
345
F9
  9
$INTERFEREVPVS
346
F6
  9
$CSHADOW
280
     0
  9
$SHADOWPLANELOCATION
 40
0.0
  0
ENDSEC
  0
SECTION
  2
CLASSES
  0
CLASS
  1
ACDBDICTIONARYWDFLT
  2
AcDbDictionaryWithDefault
  3
ObjectDBX Classes
 90
        0
 91
        1
280
     0
281
     0
  0
CLASS
  1
DICTIONARYVAR
  2
AcDbDictionaryVar
  3
ObjectDBX Classes
 90
        0
 91
       11
280
     0
281
     0
  0
CLASS
  1
TABLESTYLE
  2
AcDbTableStyle
  3
ObjectDBX Classes
 90
     4095
 91
        1
280
     0
281
     0
  0
CLASS
  1
MATERIAL
  2
AcDbMaterial
  3
ObjectDBX Classes
 90
     1153
 91
        3
280
     0
281
     0
  0
CLASS
  1
VISUALSTYLE
  2
AcDbVisualStyle
  3
ObjectDBX Classes
 90
     4095
 91
       24
280
     0
281
     0
  0
CLASS
  1
SCALE
  2
AcDbScale
  3
ObjectDBX Classes
 90
     1153
 91
       17
280
     0
281
     0
  0
CLASS
  1
MLEADERSTYLE
  2
AcDbMLeaderStyle
  3
ACDB_MLEADERSTYLE_CLASS
 90
     4095
 91
        2
280
     0
281
     0
  0
CLASS
  1
CELLSTYLEMAP
  2
AcDbCellStyleMap
  3
ObjectDBX Classes
 90
     1152
 91
        1
280
     0
281
     0
  0
CLASS
  1
EXACXREFPANELOBJECT
  2
ExAcXREFPanelObject
  3
EXAC_ESW
 90
     1025
 91
        0
280
     1
281
     0
  0
CLASS
  1
NPOCOLLECTION
  2
AcDbImpNonPersistentObjectsCollection
  3
ObjectDBX Classes
 90
     1153
 91
        0
280
     1
281
     0
  0
CLASS
  1
LAYER_INDEX
  2
AcDbLayerIndex
  3
ObjectDBX Classes
 90
        0
 91
        0
280
     0
281
     0
  0
CLASS
  1
SPATIAL_INDEX
  2
AcDbSpatialIndex
  3
ObjectDBX Classes
 90
        0
 91
        0
280
     0
281
     0
  0
CLASS
  1
IDBUFFER
  2
AcDbIdBuffer
  3
ObjectDBX Classes
 90
        0
 91
        0
280
     0
281
     0
  0
CLASS
  1
ACDBSECTIONVIEWSTYLE
  2
AcDbSectionViewStyle
  3
ObjectDBX Classes
 90
     1025
 91
        1
280
     0
281
     0
  0
CLASS
  1
ACDBDETAILVIEWSTYLE
  2
AcDbDetailViewStyle
  3
ObjectDBX Classes
 90
     1025
 91
        1
280
     0
281
     0
  0
CLASS
  1
SORTENTSTABLE
  2
AcDbSortentsTable
  3
ObjectDBX Classes
 90
        0
 91
        1
280
     0
281
     0
  0
CLASS
  1
SUN
  2
AcDbSun
  3
SCENEOE
 90
     1153
 91
        1
280
     0
281
     0
  0
CLASS
  1
DIMASSOC
  2
AcDbDimAssoc
  3
"AcDbDimAssoc|Product Desc:     AcDim ARX App For Dimension|Company:          Autodesk, Inc.|WEB Address:      www.autodesk.com"
 90
        0
 91
        6
280
     0
281
     0
  0
ENDSEC
  0
SECTION
  2
TABLES
  0
TABLE
  2
VPORT
  5
8
330
0
100
AcDbSymbolTable
 70
     1
1001
ACAD
1000
DbSaveVer
1071
      209
  0
VPORT
  5
EA
330
8
100
AcDbSymbolTableRecord
100
AcDbViewportTableRecord
  2
*Active
 70
     0
 10
0.0
 20
0.0
 11
1.0
 21
1.0
 12
465.6316790375521
 22
177.1819809038168
 13
0.0
 23
0.0
 14
10.0
 24
10.0
 15
10.0
 25
10.0
 16
0.0
 26
0.0
 36
1.0
 17
0.0
 27
0.0
 37
0.0
 40
659.322671409112
 41
2.242932862190812
 42
50.0
 43
0.0
 44
0.0
 50
0.0
 51
0.0
 71
    16
 72
  1000
 73
     1
 74
     3
 75
     0
 76
     1
 77
     0
 78
     0
281
     0
 65
     1
110
0.0
120
0.0
130
0.0
111
1.0
121
0.0
131
0.0
112
0.0
122
1.0
132
0.0
 79
     0
146
0.0
348
F5
 60
     3
 61
     5
292
     1
282
     1
141
0.0
142
0.0
 63
   250
421
  3355443
361
A5F
1001
ACAD_NAV_VCDISPLAY
1070
     3
  0
ENDTAB
  0
TABLE
  2
LTYPE
  5
5
330
0
100
AcDbSymbolTable
 70
     4
  0
LTYPE
  5
14
330
5
100
AcDbSymbolTableRecord
100
AcDbLinetypeTableRecord
  2
ByBlock
 70
     0
  3

 72
    65
 73
     0
 40
0.0
  0
LTYPE
  5
15
330
5
100
AcDbSymbolTableRecord
100
AcDbLinetypeTableRecord
  2
ByLayer
 70
     0
  3

 72
    65
 73
     0
 40
0.0
  0
LTYPE
  5
16
330
5
100
AcDbSymbolTableRecord
100
AcDbLinetypeTableRecord
  2
Continuous
 70
     0
  3
Solid line
 72
    65
 73
     0
 40
0.0
  0
LTYPE
  5
294
330
5
100
AcDbSymbolTableRecord
100
AcDbLinetypeTableRecord
  2
JIS_09_08
 70
     0
  3
2SASEN8 __ _ _ __ _ _ __ _ _ __ _ _ __ _ _
 72
    65
 73
     6
 40
10.75
 49
8.0
 74
     0
 49
-0.55
 74
     0
 49
0.55
 74
     0
 49
-0.55
 74
     0
 49
0.55
 74
     0
 49
-0.55
 74
     0
  0
LTYPE
  5
185B
330
5
100
AcDbSymbolTableRecord
100
AcDbLinetypeTableRecord
  2
ACAD_ISO03W100
 70
     0
  3
ISO tiret espace __    __    __    __    __    
 72
    65
 73
     2
 40
30.0
 49
12.0
 74
     0
 49
-18.0
 74
     0
  0
LTYPE
  5
19CB
330
5
100
AcDbSymbolTableRecord
100
AcDbLinetypeTableRecord
  2
CACHE2
 70
     0
  3
Caché (x.5) _ _ _ _ _ _ _ _ _ _ _ _ _ _ _ _ _
 72
    65
 73
     2
 40
4.7625
 49
3.174999999999999
 74
     0
 49
-1.587499999999999
 74
     0
  0
ENDTAB
  0
TABLE
  2
LAYER
  5
2
102
{ACAD_XDICTIONARY
360
1FF
102
}
330
0
100
AcDbSymbolTable
 70
     5
  0
LAYER
  5
10
330
2
100
AcDbSymbolTableRecord
100
AcDbLayerTableRecord
  2
0
 70
     0
 62
     7
  6
Continuous
370
    -3
390
F
347
EE
348
0
  0
LAYER
  5
295
330
2
100
AcDbSymbolTableRecord
100
AcDbLayerTableRecord
  2
Calque1
 70
     0
 62
   150
  6
Continuous
370
    -3
390
F
347
EE
348
0
1001
AcAecLayerStandard
1000

1000

1001
AcCmTransparency
1071
        0
  0
LAYER
  5
1852
330
2
100
AcDbSymbolTableRecord
100
AcDbLayerTableRecord
  2
Defpoints
 70
     0
 62
     7
  6
Continuous
290
     0
370
    -3
390
F
347
EE
348
0
  0
LAYER
  5
1859
330
2
100
AcDbSymbolTableRecord
100
AcDbLayerTableRecord
  2
Calque2
 70
     0
 62
   251
  6
Continuous
370
    -3
390
F
347
EE
348
0
1001
AcAecLayerStandard
1000

1000

1001
AcCmTransparency
1071
        0
  0
LAYER
  5
1983
330
2
100
AcDbSymbolTableRecord
100
AcDbLayerTableRecord
  2
DIMENSION
 70
     0
 62
     7
  6
Continuous
370
    25
390
F
347
EE
348
0
  0
ENDTAB
  0
TABLE
  2
STYLE
  5
3
330
0
100
AcDbSymbolTable
 70
     2
  0
STYLE
  5
11
330
3
100
AcDbSymbolTableRecord
100
AcDbTextStyleTableRecord
  2
Standard
 70
     0
 40
0.0
 41
1.0
 50
0.0
 71
     0
 42
2.5
  3
arial.ttf
  4

1001
ACAD
1000
Arial
1071
       34
  0
STYLE
  5
132
330
3
100
AcDbSymbolTableRecord
100
AcDbTextStyleTableRecord
  2
Annotatif
 70
     0
 40
0.0
 41
1.0
 50
0.0
 71
     0
 42
2.5
  3
arial.ttf
  4

1001
AcadAnnotative
1000
AnnotativeData
1002
{
1070
     1
1070
     1
1002
}
1001
ACAD
1000
Arial
1071
       34
  0
ENDTAB
  0
TABLE
  2
VIEW
  5
6
330
0
100
AcDbSymbolTable
 70
     0
  0
ENDTAB
  0
TABLE
  2
UCS
  5
7
330
0
100
AcDbSymbolTable
 70
     0
  0
ENDTAB
  0
TABLE
  2
APPID
  5
9
330
0
100
AcDbSymbolTable
 70
    18
  0
APPID
  5
12
330
9
100
AcDbSymbolTableRecord
100
AcDbRegAppTableRecord
  2
ACAD
 70
     0
  0
APPID
  5
9E
330
9
100
AcDbSymbolTableRecord
100
AcDbRegAppTableRecord
  2
ACAD_PSEXT
 70
     0
  0
APPID
  5
133
330
9
100
AcDbSymbolTableRecord
100
AcDbRegAppTableRecord
  2
AcadAnnoPO
 70
     0
  0
APPID
  5
134
330
9
100
AcDbSymbolTableRecord
100
AcDbRegAppTableRecord
  2
AcadAnnotative
 70
     0
  0
APPID
  5
135
330
9
100
AcDbSymbolTableRecord
100
AcDbRegAppTableRecord
  2
ACAD_DSTYLE_DIMJAG
 70
     0
  0
APPID
  5
136
330
9
100
AcDbSymbolTableRecord
100
AcDbRegAppTableRecord
  2
ACAD_DSTYLE_DIMTALN
 70
     0
  0
APPID
  5
165
330
9
100
AcDbSymbolTableRecord
100
AcDbRegAppTableRecord
  2
ACAD_MLEADERVER
 70
     0
  0
APPID
  5
217
330
9
100
AcDbSymbolTableRecord
100
AcDbRegAppTableRecord
  2
ACAD_NAV_VCDISPLAY
 70
     0
  0
APPID
  5
28C
330
9
100
AcDbSymbolTableRecord
100
AcDbRegAppTableRecord
  2
ACAD_EXEMPT_FROM_CAD_STANDARDS
 70
     0
  0
APPID
  5
296
330
9
100
AcDbSymbolTableRecord
100
AcDbRegAppTableRecord
  2
AcAecLayerStandard
 70
     0
  0
APPID
  5
297
330
9
100
AcDbSymbolTableRecord
100
AcDbRegAppTableRecord
  2
AcCmTransparency
 70
     0
  0
APPID
  5
A5A
330
9
100
AcDbSymbolTableRecord
100
AcDbRegAppTableRecord
  2
MCS_DIM1
 70
     0
  0
APPID
  5
A5B
330
9
100
AcDbSymbolTableRecord
100
AcDbRegAppTableRecord
  2
McsXdata5
 70
     0
  0
APPID
  5
A5E
330
9
100
AcDbSymbolTableRecord
100
AcDbRegAppTableRecord
  2
MCS_DOCUMENT_ID
 70
     0
  0
APPID
  5
E1F
330
9
100
AcDbSymbolTableRecord
100
AcDbRegAppTableRecord
  2
MCS_PARAMS_DATA
 70
     0
  0
APPID
  5
E2A
330
9
100
AcDbSymbolTableRecord
100
AcDbRegAppTableRecord
  2
MC_VERSION_DATA
 70
     0
  0
APPID
  5
1860
330
9
100
AcDbSymbolTableRecord
100
AcDbRegAppTableRecord
  2
GradientColor1ACI
 70
     0
  0
APPID
  5
1861
330
9
100
AcDbSymbolTableRecord
100
AcDbRegAppTableRecord
  2
GradientColor2ACI
 70
     0
  0
ENDTAB
  0
TABLE
  2
DIMSTYLE
  5
A
330
0
100
AcDbSymbolTable
 70
     3
100
AcDbDimStyleTable
 71
     1
340
27
  0
DIMSTYLE
105
1B0
330
A
100
AcDbSymbolTableRecord
100
AcDbDimStyleTableRecord
  2
Standard
 70
     0
340
11
  0
DIMSTYLE
105
137
330
A
100
AcDbSymbolTableRecord
100
AcDbDimStyleTableRecord
  2
Annotatif
 70
     0
 40
0.0
 41
2.5
 42
0.625
 43
3.75
 44
1.25
 73
     0
 74
     0
 77
     1
 78
     8
140
2.5
141
2.5
143
0.03937
147
0.625
171
     3
172
     1
271
     2
272
     2
274
     3
278
    44
283
     0
284
     8
340
11
1001
AcadAnnotative
1000
AnnotativeData
1002
{
1070
     1
1070
     1
1002
}
1001
ACAD_DSTYLE_DIMJAG
1070
   388
1040
1.5
1001
ACAD_DSTYLE_DIMTALN
1070
   392
1070
     0
  0
DIMSTYLE
105
27
102
{ACAD_REACTORS
330
2B22
330
2B25
330
2B13
330
2B16
330
2B19
330
2BA0
102
}
330
A
100
AcDbSymbolTableRecord
100
AcDbDimStyleTableRecord
  2
ISO-25
 70
     0
 41
2.5
 42
0.625
 43
3.75
 44
1.25
 73
     0
 74
     0
 77
     1
 78
     8
140
2.5
141
2.5
143
0.03937
147
0.625
171
     3
172
     1
271
     2
272
     2
274
     3
278
    44
283
     0
284
     8
340
11
  0
ENDTAB
  0
TABLE
  2
BLOCK_RECORD
  5
1
330
0
100
AcDbSymbolTable
 70
     9
  0
BLOCK_RECORD
  5
1F
102
{ACAD_XDICTIONARY
360
A60
102
}
330
1
100
AcDbSymbolTableRecord
100
AcDbBlockTableRecord
  2
*Model_Space
340
22
 70
     0
280
     1
281
     0
  0
BLOCK_RECORD
  5
D2
330
1
100
AcDbSymbolTableRecord
100
AcDbBlockTableRecord
  2
*Paper_Space
340
D3
 70
     0
280
     1
281
     0
  0
BLOCK_RECORD
  5
D6
330
1
100
AcDbSymbolTableRecord
100
AcDbBlockTableRecord
  2
*Paper_Space0
340
D7
 70
     0
280
     1
281
     0
  0
BLOCK_RECORD
  5
1899
330
1
100
AcDbSymbolTableRecord
100
AcDbBlockTableRecord
  2
_Dot
340
0
102
{BLKREFS
331
2B6A
331
2B6B
331
3427
331
3428
331
343B
331
343C
331
3444
331
3445
331
344D
331
344E
331
3456
331
3457
102
}
 70
     0
280
     1
281
     0
  0
BLOCK_RECORD
  5
2B28
330
1
100
AcDbSymbolTableRecord
100
AcDbBlockTableRecord
  2
*D2
340
0
 70
     0
280
     1
281
     0
  0
BLOCK_RECORD
  5
2B36
330
1
100
AcDbSymbolTableRecord
100
AcDbBlockTableRecord
  2
*D3
340
0
 70
     0
280
     1
281
     0
  0
BLOCK_RECORD
  5
2B43
330
1
100
AcDbSymbolTableRecord
100
AcDbBlockTableRecord
  2
*D4
340
0
 70
     0
280
     1
281
     0
  0
BLOCK_RECORD
  5
2B4F
330
1
100
AcDbSymbolTableRecord
100
AcDbBlockTableRecord
  2
*D5
340
0
 70
     0
280
     1
281
     0
  0
BLOCK_RECORD
  5
2B5B
330
1
100
AcDbSymbolTableRecord
100
AcDbBlockTableRecord
  2
*D6
340
0
 70
     0
280
     1
281
     0
  0
BLOCK_RECORD
  5
2BA1
330
1
100
AcDbSymbolTableRecord
100
AcDbBlockTableRecord
  2
*D7
340
0
 70
     0
280
     1
281
     0
  0
BLOCK_RECORD
  5
3090
102
{ACAD_XDICTIONARY
360
3145
102
}
330
1
100
AcDbSymbolTableRecord
100
AcDbBlockTableRecord
  2
bottom
340
0
 70
     4
280
     1
281
     0
  0
ENDTAB
  0
ENDSEC
  0
SECTION
  2
BLOCKS
  0
BLOCK
  5
20
330
1F
100
AcDbEntity
  8
0
100
AcDbBlockBegin
  2
*Model_Space
 70
     0
 10
0.0
 20
0.0
 30
0.0
  3
*Model_Space
  1
*Model_Space
  0
ENDBLK
  5
21
330
1F
100
AcDbEntity
  8
0
100
AcDbBlockEnd
  0
BLOCK
  5
D4
330
D2
100
AcDbEntity
 67
     1
  8
0
100
AcDbBlockBegin
  2
*Paper_Space
 70
     0
 10
0.0
 20
0.0
 30
0.0
  3
*Paper_Space
  1
*Paper_Space
  0
ENDBLK
  5
D5
330
D2
100
AcDbEntity
 67
     1
  8
0
100
AcDbBlockEnd
  0
BLOCK
  5
D8
330
D6
100
AcDbEntity
 67
     1
  8
0
100
AcDbBlockBegin
  2
*Paper_Space0
 70
     0
 10
0.0
 20
0.0
 30
0.0
  3
*Paper_Space0
  1
*Paper_Space0
  0
ENDBLK
  5
D9
330
D6
100
AcDbEntity
 67
     1
  8
0
100
AcDbBlockEnd
  0
BLOCK
  5
189A
330
1899
100
AcDbEntity
  8
0
100
AcDbBlockBegin
  2
_Dot
 70
     0
 10
0.0
 20
0.0
 30
0.0
  3
_Dot
  1
_Dot
  0
LWPOLYLINE
  5
189B
330
1899
100
AcDbEntity
  8
0
  6
ByBlock
 62
     0
100
AcDbPolyline
 90
        2
 70
     1
 43
0.5
 10
-0.25
 20
0.0
 42
1.0
 10
0.25
 20
0.0
 42
1.0
  0
LINE
  5
189C
330
1899
100
AcDbEntity
  8
0
  6
ByBlock
 62
     0
370
    -2
100
AcDbLine
 10
-0.5
 20
0.0
 30
0.0
 11
-1.0
 21
0.0
 31
0.0
  0
ENDBLK
  5
189D
330
1899
100
AcDbEntity
  8
0
100
AcDbBlockEnd
  0
BLOCK
  5
2B29
330
2B28
100
AcDbEntity
  8
0
100
AcDbBlockBegin
  2
*D2
 70
     1
 10
0.0
 20
0.0
 30
0.0
  3
*D2
  1

  0
LINE
  5
3436
330
2B28
100
AcDbEntity
  8
0
 62
     0
440
 16777216
370
    -2
100
AcDbLine
 10
78.80334213937842
 20
-28.89128658224537
 30
0.0
 11
77.1423803662283
 21
-28.89128658224537
 31
0.0
  0
LINE
  5
3437
330
2B28
100
AcDbEntity
  8
0
 62
     0
440
 16777216
370
    -2
100
AcDbLine
 10
78.80334213937842
 20
-29.99128658224534
 30
0.0
 11
77.1423803662283
 21
-29.99128658224534
 31
0.0
  0
LINE
  5
3438
330
2B28
100
AcDbEntity
  8
0
 62
     0
440
 16777216
370
    -2
100
AcDbLine
 10
78.14238036622831
 20
-28.39128658224538
 30
0.0
 11
78.14238036622831
 21
-27.89128658224538
 31
0.0
  0
LINE
  5
3439
330
2B28
100
AcDbEntity
  8
0
 62
     0
440
 16777216
370
    -2
100
AcDbLine
 10
78.14238036622831
 20
-30.49128658224534
 30
0.0
 11
78.14238036622832
 21
-32.92471086601069
 31
0.0
  0
LINE
  5
343A
330
2B28
100
AcDbEntity
  8
0
 62
     0
440
 16777216
370
    -2
100
AcDbLine
 10
78.14238036622831
 20
-28.89128658224537
 30
0.0
 11
78.14238036622831
 21
-29.99128658224534
 31
0.0
  0
INSERT
  5
343B
330
2B28
100
AcDbEntity
  8
0
 62
     0
440
 16777216
370
    -2
100
AcDbBlockReference
  2
_Dot
 10
78.14238036622831
 20
-28.89128658224537
 30
0.0
 41
0.5
 42
0.5
 43
0.5
 50
270.0
  0
INSERT
  5
343C
330
2B28
100
AcDbEntity
  8
0
 62
     0
440
 16777216
370
    -2
100
AcDbBlockReference
  2
_Dot
 10
78.14238036622831
 20
-29.99128658224534
 30
0.0
 41
0.5
 42
0.5
 43
0.5
 50
90.0
  0
MTEXT
  5
343D
330
2B28
100
AcDbEntity
  8
0
 62
     0
440
 16777216
100
AcDbMText
 10
77.34142538669214
 20
-31.95799872412803
 30
0.0
 40
1.0
 41
0.0
 46
0.0
 71
     5
 72
     1
  1
1,1
 11
0.0000000000000001
 21
1.0
 31
0.0
 73
     1
 44
1.0
  0
POINT
  5
343E
330
2B28
100
AcDbEntity
  8
Defpoints
 62
     0
440
 16777216
100
AcDbPoint
 10
79.80334213937843
 20
-28.89128658224537
 30
0.0
  0
POINT
  5
343F
330
2B28
100
AcDbEntity
  8
Defpoints
 62
     0
440
 16777216
100
AcDbPoint
 10
79.80334213937843
 20
-29.99128658224534
 30
0.0
  0
POINT
  5
3440
330
2B28
100
AcDbEntity
  8
Defpoints
 62
     0
440
 16777216
100
AcDbPoint
 10
78.14238036622831
 20
-29.99128658224534
 30
0.0
  0
ENDBLK
  5
2B2A
330
2B28
100
AcDbEntity
  8
0
100
AcDbBlockEnd
  0
BLOCK
  5
2B37
330
2B36
100
AcDbEntity
  8
0
100
AcDbBlockBegin
  2
*D3
 70
     1
 10
0.0
 20
0.0
 30
0.0
  3
*D3
  1

  0
LINE
  5
3441
330
2B36
100
AcDbEntity
  8
0
 62
     0
440
 16777216
370
    -2
100
AcDbLine
 10
82.55334213937933
 20
-29.9912865822454
 30
0.0
 11
90.56959690840816
 21
-29.9912865822454
 31
0.0
  0
LINE
  5
3442
330
2B36
100
AcDbEntity
  8
0
 62
     0
440
 16777216
370
    -2
100
AcDbLine
 10
82.55334213937752
 20
-32.39128658224537
 30
0.0
 11
90.56959690840818
 21
-32.39128658224537
 31
0.0
  0
LINE
  5
3443
330
2B36
100
AcDbEntity
  8
0
 62
     0
440
 16777216
370
    -2
100
AcDbLine
 10
89.56959690840816
 20
-30.49128658224539
 30
0.0
 11
89.56959690840816
 21
-31.89128658224537
 31
0.0
  0
INSERT
  5
3444
330
2B36
100
AcDbEntity
  8
0
 62
     0
440
 16777216
370
    -2
100
AcDbBlockReference
  2
_Dot
 10
89.56959690840816
 20
-29.9912865822454
 30
0.0
 41
0.5
 42
0.5
 43
0.5
 50
90.0
  0
INSERT
  5
3445
330
2B36
100
AcDbEntity
  8
0
 62
     0
440
 16777216
370
    -2
100
AcDbBlockReference
  2
_Dot
 10
89.56959690840816
 20
-32.39128658224537
 30
0.0
 41
0.5
 42
0.5
 43
0.5
 50
270.0
  0
MTEXT
  5
3446
330
2B36
100
AcDbEntity
  8
0
 62
     0
440
 16777216
100
AcDbMText
 10
88.76864192887198
 20
-31.1912865822454
 30
0.0
 40
1.0
 41
0.0
 46
0.0
 71
     5
 72
     1
  1
2,4
 11
0.0000000000000001
 21
1.0
 31
0.0
 73
     1
 44
1.0
  0
POINT
  5
3447
330
2B36
100
AcDbEntity
  8
Defpoints
 62
     0
440
 16777216
100
AcDbPoint
 10
81.55334213937933
 20
-29.9912865822454
 30
0.0
  0
POINT
  5
3448
330
2B36
100
AcDbEntity
  8
Defpoints
 62
     0
440
 16777216
100
AcDbPoint
 10
81.55334213937752
 20
-32.39128658224537
 30
0.0
  0
POINT
  5
3449
330
2B36
100
AcDbEntity
  8
Defpoints
 62
     0
440
 16777216
100
AcDbPoint
 10
89.56959690840816
 20
-32.39128658224537
 30
0.0
  0
ENDBLK
  5
2B38
330
2B36
100
AcDbEntity
  8
0
100
AcDbBlockEnd
  0
BLOCK
  5
2B44
330
2B43
100
AcDbEntity
  8
0
100
AcDbBlockBegin
  2
*D4
 70
     1
 10
0.0
 20
0.0
 30
0.0
  3
*D4
  1

  0
LINE
  5
2B67
330
2B43
100
AcDbEntity
  8
0
 62
     0
440
 16777216
370
    -2
100
AcDbLine
 10
86.30334213937841
 20
-25.39128658224536
 30
0.0
 11
86.30334213937841
 21
-23.09590798997988
 31
0.0
  0
LINE
  5
2B68
330
2B43
100
AcDbEntity
  8
0
 62
     0
440
 16777216
370
    -2
100
AcDbLine
 10
79.8033421393784
 20
-25.39128658224877
 30
0.0
 11
79.8033421393784
 21
-23.09590798997988
 31
0.0
  0
LINE
  5
2B69
330
2B43
100
AcDbEntity
  8
0
 62
     0
440
 16777216
370
    -2
100
AcDbLine
 10
85.8033421393784
 20
-24.09590798997988
 30
0.0
 11
80.30334213937839
 21
-24.09590798997988
 31
0.0
  0
INSERT
  5
2B6A
330
2B43
100
AcDbEntity
  8
0
 62
     0
440
 16777216
370
    -2
100
AcDbBlockReference
  2
_Dot
 10
86.30334213937841
 20
-24.09590798997988
 30
0.0
 41
0.5
 42
0.5
 43
0.5
  0
INSERT
  5
2B6B
330
2B43
100
AcDbEntity
  8
0
 62
     0
440
 16777216
370
    -2
100
AcDbBlockReference
  2
_Dot
 10
79.8033421393784
 20
-24.09590798997988
 30
0.0
 41
0.5
 42
0.5
 43
0.5
 50
180.0
  0
MTEXT
  5
2B6C
330
2B43
100
AcDbEntity
  8
0
 62
     0
440
 16777216
100
AcDbMText
 10
83.0533421393784
 20
-23.29495301044373
 30
0.0
 40
1.0
 41
0.0
 46
0.0
 71
     5
 72
     1
  1
6,5
 73
     1
 44
1.0
  0
POINT
  5
2B6D
330
2B43
100
AcDbEntity
  8
Defpoints
 62
     0
440
 16777216
100
AcDbPoint
 10
86.30334213937841
 20
-26.39128658224536
 30
0.0
  0
POINT
  5
2B6E
330
2B43
100
AcDbEntity
  8
Defpoints
 62
     0
440
 16777216
100
AcDbPoint
 10
79.8033421393784
 20
-26.39128658224877
 30
0.0
  0
POINT
  5
2B6F
330
2B43
100
AcDbEntity
  8
Defpoints
 62
     0
440
 16777216
100
AcDbPoint
 10
79.8033421393784
 20
-24.09590798997988
 30
0.0
  0
ENDBLK
  5
2B45
330
2B43
100
AcDbEntity
  8
0
100
AcDbBlockEnd
  0
BLOCK
  5
2B50
330
2B4F
100
AcDbEntity
  8
0
100
AcDbBlockBegin
  2
*D5
 70
     1
 10
0.0
 20
0.0
 30
0.0
  3
*D5
  1

  0
LINE
  5
3424
330
2B4F
100
AcDbEntity
  8
0
 62
     0
440
 16777216
370
    -2
100
AcDbLine
 10
85.20334213937713
 20
-30.99128658224533
 30
0.0
 11
85.20334213937713
 21
-36.08318900360928
 31
0.0
  0
LINE
  5
3425
330
2B4F
100
AcDbEntity
  8
0
 62
     0
440
 16777216
370
    -2
100
AcDbLine
 10
80.90334213937694
 20
-30.99128658224533
 30
0.0
 11
80.90334213937694
 21
-36.08318900360928
 31
0.0
  0
LINE
  5
3426
330
2B4F
100
AcDbEntity
  8
0
 62
     0
440
 16777216
370
    -2
100
AcDbLine
 10
84.70334213937713
 20
-35.08318900360928
 30
0.0
 11
81.40334213937695
 21
-35.08318900360928
 31
0.0
  0
INSERT
  5
3427
330
2B4F
100
AcDbEntity
  8
0
 62
     0
440
 16777216
370
    -2
100
AcDbBlockReference
  2
_Dot
 10
85.20334213937713
 20
-35.08318900360928
 30
0.0
 41
0.5
 42
0.5
 43
0.5
  0
INSERT
  5
3428
330
2B4F
100
AcDbEntity
  8
0
 62
     0
440
 16777216
370
    -2
100
AcDbBlockReference
  2
_Dot
 10
80.90334213937694
 20
-35.08318900360928
 30
0.0
 41
0.5
 42
0.5
 43
0.5
 50
180.0
  0
MTEXT
  5
3429
330
2B4F
100
AcDbEntity
  8
0
 62
     0
440
 16777216
100
AcDbMText
 10
83.05334213937703
 20
-34.28223402407313
 30
0.0
 40
1.0
 41
0.0
 46
0.0
 71
     5
 72
     1
  1
4,3
 73
     1
 44
1.0
  0
POINT
  5
342A
330
2B4F
100
AcDbEntity
  8
Defpoints
 62
     0
440
 16777216
100
AcDbPoint
 10
85.20334213937713
 20
-29.99128658224533
 30
0.0
  0
POINT
  5
342B
330
2B4F
100
AcDbEntity
  8
Defpoints
 62
     0
440
 16777216
100
AcDbPoint
 10
80.90334213937694
 20
-29.99128658224533
 30
0.0
  0
POINT
  5
342C
330
2B4F
100
AcDbEntity
  8
Defpoints
 62
     0
440
 16777216
100
AcDbPoint
 10
80.90334213937694
 20
-35.08318900360928
 30
0.0
  0
ENDBLK
  5
2B51
330
2B4F
100
AcDbEntity
  8
0
100
AcDbBlockEnd
  0
BLOCK
  5
2B5C
330
2B5B
100
AcDbEntity
  8
0
100
AcDbBlockBegin
  2
*D6
 70
     1
 10
0.0
 20
0.0
 30
0.0
  3
*D6
  1

  0
LINE
  5
3453
330
2B5B
100
AcDbEntity
  8
0
 62
     0
440
 16777216
370
    -2
100
AcDbLine
 10
85.30334213937843
 20
-26.39128658224537
 30
0.0
 11
77.14238036622834
 21
-26.39128658224537
 31
0.0
  0
LINE
  5
3454
330
2B5B
100
AcDbEntity
  8
0
 62
     0
440
 16777216
370
    -2
100
AcDbLine
 10
85.30334213937752
 20
-28.89128658224543
 30
0.0
 11
77.14238036622834
 21
-28.89128658224543
 31
0.0
  0
LINE
  5
3455
330
2B5B
100
AcDbEntity
  8
0
 62
     0
440
 16777216
370
    -2
100
AcDbLine
 10
78.14238036622834
 20
-26.89128658224538
 30
0.0
 11
78.14238036622834
 21
-28.39128658224543
 31
0.0
  0
INSERT
  5
3456
330
2B5B
100
AcDbEntity
  8
0
 62
     0
440
 16777216
370
    -2
100
AcDbBlockReference
  2
_Dot
 10
78.14238036622834
 20
-26.39128658224537
 30
0.0
 41
0.5
 42
0.5
 43
0.5
 50
90.0
  0
INSERT
  5
3457
330
2B5B
100
AcDbEntity
  8
0
 62
     0
440
 16777216
370
    -2
100
AcDbBlockReference
  2
_Dot
 10
78.14238036622834
 20
-28.89128658224543
 30
0.0
 41
0.5
 42
0.5
 43
0.5
 50
270.0
  0
MTEXT
  5
3458
330
2B5B
100
AcDbEntity
  8
0
 62
     0
440
 16777216
100
AcDbMText
 10
77.34142538669217
 20
-27.64128658224542
 30
0.0
 40
1.0
 41
0.0
 46
0.0
 71
     5
 72
     1
  1
2,5
 11
0.0000000000000001
 21
1.0
 31
0.0
 73
     1
 44
1.0
  0
POINT
  5
3459
330
2B5B
100
AcDbEntity
  8
Defpoints
 62
     0
440
 16777216
100
AcDbPoint
 10
86.30334213937842
 20
-26.39128658224537
 30
0.0
  0
POINT
  5
345A
330
2B5B
100
AcDbEntity
  8
Defpoints
 62
     0
440
 16777216
100
AcDbPoint
 10
86.30334213937752
 20
-28.89128658224543
 30
0.0
  0
POINT
  5
345B
330
2B5B
100
AcDbEntity
  8
Defpoints
 62
     0
440
 16777216
100
AcDbPoint
 10
78.14238036622834
 20
-28.89128658224543
 30
0.0
  0
ENDBLK
  5
2B5D
330
2B5B
100
AcDbEntity
  8
0
100
AcDbBlockEnd
  0
BLOCK
  5
2BA2
330
2BA1
100
AcDbEntity
  8
0
100
AcDbBlockBegin
  2
*D7
 70
     1
 10
0.0
 20
0.0
 30
0.0
  3
*D7
  1

  0
LINE
  5
344A
330
2BA1
100
AcDbEntity
  8
0
 62
     0
440
 16777216
370
    -2
100
AcDbLine
 10
80.80334213937844
 20
-26.39128658224543
 30
0.0
 11
90.56959690840818
 21
-26.39128658224543
 31
0.0
  0
LINE
  5
344B
330
2BA1
100
AcDbEntity
  8
0
 62
     0
440
 16777216
370
    -2
100
AcDbLine
 10
81.90334213937697
 20
-29.9912865822454
 30
0.0
 11
90.56959690840818
 21
-29.9912865822454
 31
0.0
  0
LINE
  5
344C
330
2BA1
100
AcDbEntity
  8
0
 62
     0
440
 16777216
370
    -2
100
AcDbLine
 10
89.56959690840818
 20
-26.89128658224543
 30
0.0
 11
89.56959690840818
 21
-29.4912865822454
 31
0.0
  0
INSERT
  5
344D
330
2BA1
100
AcDbEntity
  8
0
 62
     0
440
 16777216
370
    -2
100
AcDbBlockReference
  2
_Dot
 10
89.56959690840818
 20
-26.39128658224543
 30
0.0
 41
0.5
 42
0.5
 43
0.5
 50
90.0
  0
INSERT
  5
344E
330
2BA1
100
AcDbEntity
  8
0
 62
     0
440
 16777216
370
    -2
100
AcDbBlockReference
  2
_Dot
 10
89.56959690840818
 20
-29.9912865822454
 30
0.0
 41
0.5
 42
0.5
 43
0.5
 50
270.0
  0
MTEXT
  5
344F
330
2BA1
100
AcDbEntity
  8
0
 62
     0
440
 16777216
100
AcDbMText
 10
88.76864192887202
 20
-28.19128658224543
 30
0.0
 40
1.0
 41
0.0
 46
0.0
 71
     5
 72
     1
  1
3,6
 11
0.0000000000000001
 21
1.0
 31
0.0
 73
     1
 44
1.0
  0
POINT
  5
3450
330
2BA1
100
AcDbEntity
  8
Defpoints
 62
     0
440
 16777216
100
AcDbPoint
 10
79.80334213937843
 20
-26.39128658224543
 30
0.0
  0
POINT
  5
3451
330
2BA1
100
AcDbEntity
  8
Defpoints
 62
     0
440
 16777216
100
AcDbPoint
 10
80.90334213937698
 20
-29.9912865822454
 30
0.0
  0
POINT
  5
3452
330
2BA1
100
AcDbEntity
  8
Defpoints
 62
     0
440
 16777216
100
AcDbPoint
 10
89.56959690840818
 20
-29.9912865822454
 30
0.0
  0
ENDBLK
  5
2BA3
330
2BA1
100
AcDbEntity
  8
0
100
AcDbBlockEnd
  0
BLOCK
  5
3146
330
3090
100
AcDbEntity
  8
0
100
AcDbBlockBegin
  2
bottom
 70
     0
 10
0.0
 20
0.0
 30
0.0
  3
bottom
  1

  0
ARC
  5
3091
330
3090
100
AcDbEntity
  8
Calque1
100
AcDbCircle
 10
0.0000000000582077
 20
-64.80237826067252
 30
0.0
 40
0.9999999999993177
100
AcDbArc
 50
90.0000000001042
 51
139.5607484236911
  0
LINE
  5
3092
330
3090
100
AcDbEntity
  8
Calque1
100
AcDbLine
 10
-0.7610941218008521
 20
-64.15373680526545
 30
0.0
 11
-2.696488965970274
 21
-66.42466418292882
 31
0.0
  0
ARC
  5
3093
330
3090
100
AcDbEntity
  8
Calque1
100
AcDbCircle
 10
-1.935394844113034
 20
-67.07330563833625
 30
0.0
 40
1.0
100
AcDbArc
 50
139.5607484235906
 51
270.0
  0
LINE
  5
3094
330
3090
100
AcDbEntity
  8
Calque1
100
AcDbLine
 10
-1.999999999945429
 20
-48.20615199515281
 30
0.0
 11
-1.999999999945429
 21
-56.66077004243311
 31
0.0
  0
ARC
  5
3095
330
3090
100
AcDbEntity
  8
Calque1
100
AcDbCircle
 10
-2.99999999994543
 20
-56.66077004243447
 30
0.0
 40
1.0
100
AcDbArc
 50
319.5607484237165
 51
0.0000000000781653
  0
LINE
  5
3096
330
3090
100
AcDbEntity
  8
Calque1
100
AcDbLine
 10
-2.23890587808637
 20
-57.30941149784064
 30
0.0
 11
-5.23890587808637
 21
-60.82951084785724
 31
0.0
  0
ARC
  5
3097
330
3090
100
AcDbEntity
  8
Calque1
100
AcDbCircle
 10
-5.999999999945429
 20
-60.18086939244994
 30
0.0
 40
1.000000000000657
100
AcDbArc
 50
179.9999999999935
 51
319.5607484236865
  0
LINE
  5
3098
330
3090
100
AcDbEntity
  8
Calque1
100
AcDbLine
 10
-6.999999999943611
 20
-60.18086939244984
 30
0.0
 11
-6.999999999943611
 21
-44.90583932813207
 31
0.0
  0
LINE
  5
3099
330
3090
100
AcDbEntity
  8
Calque1
100
AcDbLine
 10
-5.260028206150308
 20
-44.23320142822557
 30
0.0
 11
-2.260028206150308
 21
-47.53351409524646
 31
0.0
  0
ARC
  5
309A
330
3090
100
AcDbEntity
  8
Calque1
100
AcDbCircle
 10
-5.999999999943611
 20
-44.90583932813207
 30
0.0
 40
1.0
100
AcDbArc
 50
42.27098710995224
 51
180.0
  0
ARC
  5
309B
330
3090
100
AcDbEntity
  8
Calque1
100
AcDbCircle
 10
-2.99999999994543
 20
-48.20615199515032
 30
0.0
 40
0.999999999999723
100
AcDbArc
 50
359.9999999998567
 51
42.27098710977935
  0
LINE
  5
309C
330
3090
100
AcDbEntity
  8
Calque1
100
AcDbLine
 10
-18.00390714178138
 20
0.0000000000281943
 30
0.0
 11
-18.00390714178138
 21
1.029526224403297
 31
0.0
  0
ARC
  5
309D
330
3090
100
AcDbEntity
  8
Calque1
100
AcDbCircle
 10
-23.00390714178139
 20
1.029526224403297
 30
0.0
 40
5.0
100
AcDbArc
 50
0.0
 51
50.56555205648881
  0
LINE
  5
309E
330
3090
100
AcDbEntity
  8
Calque1
100
AcDbLine
 10
-35.14914822545506
 20
23.62954821003313
 30
0.0
 11
-33.35869343938794
 21
26.05272010095177
 31
0.0
  0
ARC
  5
309F
330
3090
100
AcDbEntity
  8
Calque1
100
AcDbCircle
 10
-29.33734848565837
 20
23.08139299625259
 30
0.0
 40
5.0
100
AcDbArc
 50
90.0
 51
143.5397166768069
  0
ARC
  5
30A0
330
3090
100
AcDbEntity
  8
Calque1
100
AcDbCircle
 10
0.0000000000618456
 20
65.95891269874265
 30
0.0
 40
0.9999999999992843
100
AcDbArc
 50
220.6524411945501
 51
319.3475588054603
  0
LINE
  5
30A1
330
3090
100
AcDbEntity
  8
Calque1
100
AcDbLine
 10
-0.7586753542273073
 20
65.30744381476324
 30
0.0
 11
-7.514910437619619
 21
73.17549272944837
 31
0.0
  0
ARC
  5
30A2
330
3090
100
AcDbEntity
  8
Calque1
100
AcDbCircle
 10
-6.756235083330465
 20
73.82696161342881
 30
0.0
 40
1.0
100
AcDbArc
 50
180.0
 51
220.6524411945801
  0
LINE
  5
30A3
330
3090
100
AcDbEntity
  8
Calque1
100
AcDbLine
 10
-7.144732119848412
 20
77.45399415034319
 30
0.0
 11
-3.380413828901509
 21
79.04108682331025
 31
0.0
  0
ARC
  5
30A4
330
3090
100
AcDbEntity
  8
Calque1
100
AcDbCircle
 10
-6.756235083330465
 20
76.53254417741152
 30
0.0
 40
1.0
100
AcDbArc
 50
112.8610129017372
 51
180.0
  0
ARC
  5
30A5
330
3090
100
AcDbEntity
  8
Calque1
100
AcDbCircle
 10
-2.991916792383563
 20
78.1196368503803
 30
0.0
 40
0.9999999999979284
100
AcDbArc
 50
90.0
 51
112.8610129017372
  0
LINE
  5
30A6
330
3090
100
AcDbEntity
  8
Calque1
100
AcDbLine
 10
-2.991916792383563
 20
79.11963685037813
 30
0.0
 11
0.0000000000509317
 21
79.1196368503779
 31
0.0
  0
LINE
  5
30A7
330
3090
100
AcDbEntity
  8
Calque1
100
AcDbLine
 10
-7.999999999943611
 20
53.86408244386416
 30
0.0
 11
-7.999999999943611
 21
65.42882970830226
 31
0.0
  0
ARC
  5
30A8
330
3090
100
AcDbEntity
  8
Calque1
100
AcDbCircle
 10
-8.999999999943611
 20
53.86408244386416
 30
0.0
 40
1.0
100
AcDbArc
 50
319.3475588054395
 51
0.0
  0
ARC
  5
30A9
330
3090
100
AcDbEntity
  8
Calque1
100
AcDbCircle
 10
-6.999999999943611
 20
65.4288297083026
 30
0.0
 40
1.0
100
AcDbArc
 50
40.65244119456971
 51
180.0000000000195
  0
LINE
  5
30AA
330
3090
100
AcDbEntity
  8
Calque1
100
AcDbLine
 10
-6.241324645654456
 20
66.0802985922827
 30
0.0
 11
-2.241324645656276
 21
61.42205398262809
 31
0.0
  0
ARC
  5
30AB
330
3090
100
AcDbEntity
  8
Calque1
100
AcDbCircle
 10
-2.99999999994543
 20
60.77058509864798
 30
0.0
 40
1.000000000000023
100
AcDbArc
 50
0.0000000000195413
 51
40.65244119456971
  0
LINE
  5
30AC
330
3090
100
AcDbEntity
  8
Calque1
100
AcDbLine
 10
-1.999999999945429
 20
60.77058509864833
 30
0.0
 11
-1.999999999945429
 21
50.08611363459749
 31
0.0
  0
ARC
  5
30AD
330
3090
100
AcDbEntity
  8
Calque1
100
AcDbCircle
 10
-2.99999999994543
 20
50.08611363459761
 30
0.0
 40
1.0
100
AcDbArc
 50
319.3475588054302
 51
359.9999999999935
  0
LINE
  5
30AE
330
3090
100
AcDbEntity
  8
Calque1
100
AcDbLine
 10
-2.241324645656276
 20
49.4346447506175
 30
0.0
 11
-8.579764790250917
 21
42.05314359132568
 31
0.0
  0
ARC
  5
30AF
330
3090
100
AcDbEntity
  8
Calque1
100
AcDbCircle
 10
-9.338440144540072
 20
42.70461247530568
 30
0.0
 40
1.0
100
AcDbArc
 50
180.0
 51
319.3475588054349
  0
LINE
  5
30B0
330
3090
100
AcDbEntity
  8
Calque1
100
AcDbLine
 10
-18.0039071417832
 20
-1.029526224346908
 30
0.0
 11
-18.00390714178138
 21
0.0000000000281943
 31
0.0
  0
CIRCLE
  5
30B1
330
3090
100
AcDbEntity
  8
Calque1
100
AcDbCircle
 10
-15.3420824153527
 20
26.61934389036014
 30
0.0
 40
1.5
  0
CIRCLE
  5
30B2
330
3090
100
AcDbEntity
  8
Calque1
100
AcDbCircle
 10
-11.49999999994361
 20
-69.28450149273429
 30
0.0
 40
1.5
  0
CIRCLE
  5
30B3
330
3090
100
AcDbEntity
  8
Calque1
100
AcDbCircle
 10
-9.999999999943613
 20
-37.04537045475718
 30
0.0
 40
1.1
  0
CIRCLE
  5
30B4
330
3090
100
AcDbEntity
  8
Calque1
100
AcDbCircle
 10
-9.999999999943613
 20
-57.04537045475717
 30
0.0
 40
1.1
  0
CIRCLE
  5
30B5
330
3090
100
AcDbEntity
  8
Calque1
100
AcDbCircle
 10
-15.34208241535452
 20
-26.6193438903024
 30
0.0
 40
1.5
  0
CIRCLE
  5
30B6
330
3090
100
AcDbEntity
  8
Calque1
100
AcDbCircle
 10
-29.48578270885083
 20
21.78671722383137
 30
0.0
 40
2.149999999999999
  0
CIRCLE
  5
30B7
330
3090
100
AcDbEntity
  8
Calque1
100
AcDbCircle
 10
-29.48578270883445
 20
-21.78671722379613
 30
0.0
 40
2.149999999999999
  0
CIRCLE
  5
30B8
330
3090
100
AcDbEntity
  8
Calque1
100
AcDbCircle
 10
15.34208241546548
 20
26.61934389036014
 30
0.0
 40
1.5
  0
CIRCLE
  5
30B9
330
3090
100
AcDbEntity
  8
Calque1
100
AcDbCircle
 10
11.50000000005639
 20
-69.28450149273429
 30
0.0
 40
1.5
  0
CIRCLE
  5
30BA
330
3090
100
AcDbEntity
  8
Calque1
100
AcDbCircle
 10
10.00000000005639
 20
-37.04537045475718
 30
0.0
 40
1.1
  0
CIRCLE
  5
30BB
330
3090
100
AcDbEntity
  8
Calque1
100
AcDbCircle
 10
10.00000000005639
 20
-57.04537045475717
 30
0.0
 40
1.1
  0
CIRCLE
  5
30BC
330
3090
100
AcDbEntity
  8
Calque1
100
AcDbCircle
 10
15.3420824154673
 20
-26.6193438903024
 30
0.0
 40
1.5
  0
LINE
  5
30BD
330
3090
100
AcDbEntity
  8
Calque1
100
AcDbLine
 10
-8.760481618699486
 20
36.729901906593
 30
0.0
 11
-3.758675354234582
 21
42.55481117408293
 31
0.0
  0
ARC
  5
30BE
330
3090
100
AcDbEntity
  8
Calque1
100
AcDbCircle
 10
-8.001806264410332
 20
36.0784330226129
 30
0.0
 40
1.0
100
AcDbArc
 50
139.3475588054257
 51
198.9037505680997
  0
LINE
  5
30BF
330
3090
100
AcDbEntity
  8
Calque1
100
AcDbLine
 10
-8.947870417654485
 20
35.75445367458588
 30
0.0
 11
-3.924594446156334
 21
23.56267590688708
 31
0.0
  0
LINE
  5
30C0
330
3090
100
AcDbEntity
  8
Calque1
100
AcDbLine
 10
-6.343654279402471
 20
-37.09436383091838
 30
0.0
 11
-0.7399717937405513
 21
-43.2589985940516
 31
0.0
  0
ARC
  5
30C1
330
3090
100
AcDbEntity
  8
Calque1
100
AcDbCircle
 10
-5.603682485609168
 20
-36.42172593101179
 30
0.0
 40
1.0
100
AcDbArc
 50
157.7263542699714
 51
222.270987109943
  0
LINE
  5
30C2
330
3090
100
AcDbEntity
  8
Calque1
100
AcDbLine
 10
-6.529066644103294
 20
-36.04269537919664
 30
0.0
 11
-0.9253841584359181
 21
-22.36158451193501
 31
0.0
  0
LINE
  5
30C3
330
3090
100
AcDbEntity
  8
Calque1
100
AcDbLine
 10
6.343654279515248
 20
-37.09436383091929
 30
0.0
 11
0.7399717938460526
 21
-43.25899859405207
 31
0.0
  0
ARC
  5
30C4
330
3090
100
AcDbEntity
  8
Calque1
100
AcDbCircle
 10
0.0000000000545697
 20
-42.58636069414534
 30
0.0
 40
1.0
100
AcDbArc
 50
222.270987109943
 51
317.7290128900328
  0
LINE
  5
30C5
330
3090
100
AcDbEntity
  8
Calque1
100
AcDbLine
 10
6.529066644216072
 20
-36.04269537919731
 30
0.0
 11
0.925384158548695
 21
-22.36158451193489
 31
0.0
  0
ARC
  5
30C6
330
3090
100
AcDbEntity
  8
Calque1
100
AcDbCircle
 10
5.603682485721947
 20
-36.4217259310126
 30
0.0
 40
1.0
100
AcDbArc
 50
317.7290128900328
 51
22.27364573002855
  0
ARC
  5
30C7
330
3090
100
AcDbEntity
  8
Calque1
100
AcDbCircle
 10
0.0000000000563887
 20
-22.74061506375006
 30
0.0
 40
1.0
100
AcDbArc
 50
22.27364573002855
 51
157.7263542699714
  0
LINE
  5
30C8
330
3090
100
AcDbEntity
  8
Calque1
100
AcDbLine
 10
-1.999999999945429
 20
41.90334229010272
 30
0.0
 11
-1.999999999945429
 21
23.94362880428468
 31
0.0
  0
ARC
  5
30C9
330
3090
100
AcDbEntity
  8
Calque1
100
AcDbCircle
 10
-2.99999999994543
 20
23.94362880428468
 30
0.0
 40
1.0
100
AcDbArc
 50
202.392719808764
 51
0.0
  0
ARC
  5
30CA
330
3090
100
AcDbEntity
  8
Calque1
100
AcDbCircle
 10
-2.99999999994543
 20
41.90334229010272
 30
0.0
 40
1.0
100
AcDbArc
 50
0.0
 51
139.3475588054303
  0
CIRCLE
  5
30CB
330
3090
100
AcDbEntity
  8
Calque1
100
AcDbCircle
 10
-12.74999999994361
 20
-34.29537045475719
 30
0.0
 40
1.1
  0
CIRCLE
  5
30CC
330
3090
100
AcDbEntity
  8
Calque1
100
AcDbCircle
 10
12.75000000005639
 20
-34.29537045475719
 30
0.0
 40
1.1
  0
CIRCLE
  5
30CD
330
3090
100
AcDbEntity
  8
Calque1
100
AcDbCircle
 10
12.75000000005639
 20
-59.79537045475717
 30
0.0
 40
1.1
  0
CIRCLE
  5
30CE
330
3090
100
AcDbEntity
  8
Calque1
100
AcDbCircle
 10
-12.74999999994361
 20
-59.79537045475717
 30
0.0
 40
1.1
  0
LWPOLYLINE
  5
30CF
330
3090
100
AcDbEntity
  8
Calque1
100
AcDbPolyline
 90
        8
 70
     1
 43
0.0
 10
-12.89709391028919
 20
75.28765095715313
 42
0.9067132735033903
 10
-12.99999999992906
 20
74.29776145404878
 10
-12.99999999992906
 20
70.17755735086382
 42
0.9067132733287339
 10
-12.89709391048563
 20
69.18766784775947
 10
-10.00290605262307
 20
69.18766784775947
 42
0.9067132400835154
 10
-9.899999999928695
 20
70.17755735086382
 10
-9.899999999928695
 20
74.29776145404878
 42
0.9067132399891487
 10
-10.00290605251575
 20
75.28765095715313
  0
LWPOLYLINE
  5
30D0
330
3090
100
AcDbEntity
  8
Calque1
100
AcDbPolyline
 90
        8
 70
     1
 43
0.0
 10
-12.89709391028919
 20
61.70361020977974
 42
0.9067132735033903
 10
-12.99999999992906
 20
60.71372070667543
 10
-12.99999999992906
 20
56.59351660349045
 42
0.9067132733287339
 10
-12.89709391048563
 20
55.60362710038611
 10
-10.00290605262307
 20
55.60362710038611
 42
0.9067132400835154
 10
-9.899999999928695
 20
56.59351660349045
 10
-9.899999999928695
 20
60.71372070667543
 42
0.9067132399891487
 10
-10.00290605251575
 20
61.70361020977974
  0
LWPOLYLINE
  5
30D1
330
3090
100
AcDbEntity
  8
Calque1
100
AcDbPolyline
 90
        8
 70
     0
 43
0.0
 10
-13.399999999805
 20
81.27268151395526
 42
0.4159169460890487
 10
-12.89709391048563
 20
80.77268995938197
 10
-10.00290605262307
 20
80.77268995938197
 42
0.9067132400835154
 10
-9.899999999928695
 20
81.76257946248631
 10
-9.899999999928695
 20
82.44966748580305
 10
-6.287180258117587
 20
83.9728861134005
 42
-0.1000821478851389
 10
-5.510186185081693
 20
84.12998616753656
 10
0.0000000000563887
 20
84.12998616753668
  0
LINE
  5
30D2
330
3090
100
AcDbEntity
  8
Calque1
100
AcDbLine
 10
-13.399999999805
 20
81.32268151395511
 30
0.0
 11
-14.31622295870329
 21
81.01727901961011
 31
0.0
  0
ARC
  5
30D3
330
3090
100
AcDbEntity
  8
Calque1
100
AcDbCircle
 10
-13.99999999994361
 20
80.06859411915433
 30
0.0
 40
1.0
100
AcDbArc
 50
108.4346584886125
 51
180.0
  0
LWPOLYLINE
  5
30D4
330
3090
100
AcDbEntity
  8
Calque1
100
AcDbPolyline
 90
        8
 70
     1
 43
0.0
 10
12.89709391040196
 20
75.28765095715313
 42
-0.9067132735033903
 10
13.00000000004184
 20
74.29776145404878
 10
13.00000000004184
 20
70.17755735086382
 42
-0.9067132733287339
 10
12.89709391059841
 20
69.18766784775947
 10
10.00290605273585
 20
69.18766784775947
 42
-0.9067132400835154
 10
9.900000000041472
 20
70.17755735086382
 10
9.900000000041472
 20
74.29776145404878
 42
-0.9067132399891487
 10
10.00290605262853
 20
75.28765095715313
  0
LWPOLYLINE
  5
30D5
330
3090
100
AcDbEntity
  8
Calque1
100
AcDbPolyline
 90
        8
 70
     1
 43
0.0
 10
12.89709391040196
 20
61.70361020977974
 42
-0.9067132735033903
 10
13.00000000004184
 20
60.71372070667543
 10
13.00000000004184
 20
56.59351660349045
 42
-0.9067132733287339
 10
12.89709391059841
 20
55.60362710038611
 10
10.00290605273585
 20
55.60362710038611
 42
-0.9067132400835154
 10
9.900000000041472
 20
56.59351660349045
 10
9.900000000041472
 20
60.71372070667543
 42
-0.9067132399891487
 10
10.00290605262853
 20
61.70361020977974
  0
LWPOLYLINE
  5
30D6
330
3090
100
AcDbEntity
  8
Calque1
100
AcDbPolyline
 90
        8
 70
     0
 43
0.0
 10
13.39999999991778
 20
81.27268151395526
 42
-0.4159169460890487
 10
12.89709391059841
 20
80.77268995938197
 10
10.00290605273585
 20
80.77268995938197
 42
-0.9067132400835154
 10
9.900000000041472
 20
81.76257946248631
 10
9.900000000041472
 20
82.44966748580305
 10
6.287180258230363
 20
83.9728861134005
 42
0.1000821478851389
 10
5.510186185194469
 20
84.12998616753656
 10
0.0000000000563887
 20
84.12998616753668
  0
CIRCLE
  5
30D7
330
3090
100
AcDbEntity
  8
Calque1
100
AcDbCircle
 10
29.4857827089636
 20
21.78671722383137
 30
0.0
 40
2.149999999999999
  0
CIRCLE
  5
30D8
330
3090
100
AcDbEntity
  8
Calque1
100
AcDbCircle
 10
29.48578270894723
 20
-21.78671722379613
 30
0.0
 40
2.149999999999999
  0
LWPOLYLINE
  5
30D9
330
3090
100
AcDbEntity
  8
Calque1
100
AcDbPolyline
 90
       10
 70
     0
 43
0.0
 10
-20.40884123710384
 20
51.26800297459055
 10
-20.40884123710384
 20
49.66291522441189
 42
0.1989123673796348
 10
-19.82305479947536
 20
48.24870166203902
 10
-15.58578643757028
 20
44.01143330013531
 42
-0.1989123673797353
 10
-14.99999999994361
 20
42.59721973776152
 10
-14.99999999994361
 20
35.40546118177804
 42
-0.1989123673796318
 10
-15.58578643757028
 20
33.99124761940504
 10
-20.03117496665618
 20
29.54585909031982
 42
-0.1989123673796884
 10
-23.56670887258951
 20
28.08139299625259
 10
-29.33734848565837
 20
28.08139299625259
  0
CIRCLE
  5
30DA
330
3090
100
AcDbEntity
  8
Calque1
100
AcDbCircle
 10
-16.48245840796881
 20
51.26800297459168
 30
0.0
 40
1.5
  0
LWPOLYLINE
  5
30DB
330
3090
100
AcDbEntity
  8
Calque1
100
AcDbPolyline
 90
        6
 70
     0
 43
0.0
 10
-20.40884123710384
 20
51.26800297459055
 10
-20.40884123710384
 20
52.87309072476921
 42
-0.1989123673796348
 10
-19.82305479947536
 20
54.28730428714209
 10
-15.58578643757028
 20
58.52457264904581
 42
0.1989123673796762
 10
-14.99999999994361
 20
59.93878621141914
 10
-14.99999999994361
 20
80.06859411915433
  0
CIRCLE
  5
30DC
330
3090
100
AcDbEntity
  8
Calque1
100
AcDbCircle
 10
16.48245840815798
 20
51.26800297459168
 30
0.0
 40
1.5
  0
LINE
  5
30DD
330
3090
100
AcDbEntity
  8
Calque1
100
AcDbLine
 10
13.39999999991778
 20
81.32268151395511
 30
0.0
 11
14.31622295881607
 21
81.01727901961011
 31
0.0
  0
ARC
  5
30DE
330
3090
100
AcDbEntity
  8
Calque1
100
AcDbCircle
 10
14.00000000005639
 20
80.06859411915433
 30
0.0
 40
1.0
100
AcDbArc
 50
0.0
 51
71.56534151128089
  0
LWPOLYLINE
  5
30DF
330
3090
100
AcDbEntity
  8
Calque1
100
AcDbPolyline
 90
        6
 70
     0
 43
0.0
 10
20.40884123721662
 20
51.26800297459055
 10
20.40884123721662
 20
52.87309072476921
 42
0.1989123673796348
 10
19.82305479958813
 20
54.28730428714209
 10
15.58578643768305
 20
58.52457264904581
 42
-0.1989123673796762
 10
15.00000000005639
 20
59.93878621141914
 10
15.00000000005639
 20
80.06859411915433
  0
LINE
  5
30E0
330
3090
100
AcDbEntity
  8
Calque1
100
AcDbLine
 10
-19.82793219634368
 20
4.891285298445382
 30
0.0
 11
-34.3037782171632
 21
16.79646203129209
 31
0.0
  0
ARC
  5
30E1
330
3090
100
AcDbEntity
  8
Calque1
100
AcDbCircle
 10
-31.1278032717255
 20
20.65822110533407
 30
0.0
 40
5.0
100
AcDbArc
 50
143.5397166768069
 51
230.5655520564888
  0
ARC
  5
30E2
330
3090
100
AcDbEntity
  8
Calque1
100
AcDbCircle
 10
-23.00390714178139
 20
-1.029526224346908
 30
0.0
 40
5.0
100
AcDbArc
 50
309.4344479435112
 51
0.0
  0
LINE
  5
30E3
330
3090
100
AcDbEntity
  8
Calque1
100
AcDbLine
 10
-19.82793219634368
 20
-4.891285298388993
 30
0.0
 11
-34.3037782171632
 21
-16.79646203123627
 31
0.0
  0
ARC
  5
30E4
330
3090
100
AcDbEntity
  8
Calque1
100
AcDbCircle
 10
23.00390714188688
 20
1.029526224366122
 30
0.0
 40
5.0
100
AcDbArc
 50
129.4344479433667
 51
179.9999999999088
  0
LINE
  5
30E5
330
3090
100
AcDbEntity
  8
Calque1
100
AcDbLine
 10
18.00390714189416
 20
0.0000000000281943
 30
0.0
 11
18.00390714189416
 21
1.029526224403297
 31
0.0
  0
LINE
  5
30E6
330
3090
100
AcDbEntity
  8
Calque1
100
AcDbLine
 10
18.00390714189598
 20
-1.029526224346908
 30
0.0
 11
18.00390714189416
 21
0.0000000000281943
 31
0.0
  0
ARC
  5
30E7
330
3090
100
AcDbEntity
  8
Calque1
100
AcDbCircle
 10
23.00390714189416
 20
-1.029526224346908
 30
0.0
 40
5.0
100
AcDbArc
 50
180.0
 51
230.5655520563917
  0
CIRCLE
  5
30E8
330
3090
100
AcDbEntity
  8
Calque1
100
AcDbCircle
 10
-10.53927842424491
 20
7.787355724565941
 30
0.0
 40
1.5
  0
CIRCLE
  5
30E9
330
3090
100
AcDbEntity
  8
Calque1
100
AcDbCircle
 10
10.53927842424491
 20
7.787355724565941
 30
0.0
 40
1.5
  0
CIRCLE
  5
30EA
330
3090
100
AcDbEntity
  8
Calque1
100
AcDbCircle
 10
-10.53927842424491
 20
-7.787355724565941
 30
0.0
 40
1.5
  0
CIRCLE
  5
30EB
330
3090
100
AcDbEntity
  8
Calque1
100
AcDbCircle
 10
10.53927842424491
 20
-7.787355724565941
 30
0.0
 40
1.5
  0
LINE
  5
30EC
330
3090
100
AcDbEntity
  8
Calque1
100
AcDbLine
 10
-10.33844014454007
 20
50.39996274129247
 30
0.0
 11
-10.33844014454007
 21
42.70461247530568
 31
0.0
  0
ARC
  5
30ED
330
3090
100
AcDbEntity
  8
Calque1
100
AcDbCircle
 10
-9.338440144540072
 20
50.39996274129247
 30
0.0
 40
1.0
100
AcDbArc
 50
139.3475588054395
 51
180.0
  0
LINE
  5
30EE
330
3090
100
AcDbEntity
  8
Calque1
100
AcDbLine
 10
-10.09711549882922
 20
51.05143162527224
 30
0.0
 11
-8.241324645654456
 21
53.2126135598844
 31
0.0
  0
LINE
  5
30EF
330
3090
100
AcDbEntity
  8
Calque1
100
AcDbLine
 10
8.000000000063662
 20
53.86408244385518
 30
0.0
 11
8.000000000076397
 21
65.42882970829328
 31
0.0
  0
ARC
  5
30F0
330
3090
100
AcDbEntity
  8
Calque1
100
AcDbCircle
 10
9.000000000063662
 20
53.86408244385403
 30
0.0
 40
1.0
100
AcDbArc
 50
179.9999999999348
 51
220.6524411945455
  0
ARC
  5
30F1
330
3090
100
AcDbEntity
  8
Calque1
100
AcDbCircle
 10
7.000000000076397
 20
65.42882970829476
 30
0.0
 40
1.0
100
AcDbArc
 50
359.9999999999153
 51
139.3475588054107
  0
LINE
  5
30F2
330
3090
100
AcDbEntity
  8
Calque1
100
AcDbLine
 10
6.241324645789062
 20
66.08029859227565
 30
0.0
 11
2.241324645785424
 21
61.42205398262557
 31
0.0
  0
ARC
  5
30F3
330
3090
100
AcDbEntity
  8
Calque1
100
AcDbCircle
 10
3.000000000074578
 20
60.77058509864457
 30
0.0
 40
1.000000000000023
100
AcDbArc
 50
139.3475588054107
 51
179.9999999999153
  0
LINE
  5
30F4
330
3090
100
AcDbEntity
  8
Calque1
100
AcDbLine
 10
2.000000000074578
 20
60.77058509864605
 30
0.0
 11
2.000000000061844
 21
50.08611363459522
 31
0.0
  0
ARC
  5
30F5
330
3090
100
AcDbEntity
  8
Calque1
100
AcDbCircle
 10
3.000000000061845
 20
50.0861136345942
 30
0.0
 40
1.0
100
AcDbArc
 50
179.9999999999413
 51
220.6524411945455
  0
LINE
  5
30F6
330
3090
100
AcDbEntity
  8
Calque1
100
AcDbLine
 10
2.241324645772691
 20
49.43464475061499
 30
0.0
 11
8.57976479035824
 21
42.05314359131603
 31
0.0
  0
ARC
  5
30F7
330
3090
100
AcDbEntity
  8
Calque1
100
AcDbCircle
 10
9.338440144649212
 20
42.70461247529522
 30
0.0
 40
1.0
100
AcDbArc
 50
220.6524411945455
 51
359.9999999999349
  0
LINE
  5
30F8
330
3090
100
AcDbEntity
  8
Calque1
100
AcDbLine
 10
8.76048161880135
 20
36.72990190658321
 30
0.0
 11
3.758675354341903
 21
42.55481117407874
 31
0.0
  0
ARC
  5
30F9
330
3090
100
AcDbEntity
  8
Calque1
100
AcDbCircle
 10
8.001806264510378
 20
36.07843302260393
 30
0.0
 40
1.0
100
AcDbArc
 50
341.0962494317988
 51
40.65244119455011
  0
LINE
  5
30FA
330
3090
100
AcDbEntity
  8
Calque1
100
AcDbLine
 10
8.947870417754529
 20
35.75445367457587
 30
0.0
 11
3.924594446243645
 21
23.56267590688265
 31
0.0
  0
LINE
  5
30FB
330
3090
100
AcDbEntity
  8
Calque1
100
AcDbLine
 10
2.00000000005275
 20
41.90334229010045
 30
0.0
 11
2.00000000003274
 21
23.94362880428241
 31
0.0
  0
ARC
  5
30FC
330
3090
100
AcDbEntity
  8
Calque1
100
AcDbCircle
 10
3.000000000032741
 20
23.94362880428127
 30
0.0
 40
1.0
100
AcDbArc
 50
179.9999999999348
 51
337.6072801911512
  0
ARC
  5
30FD
330
3090
100
AcDbEntity
  8
Calque1
100
AcDbCircle
 10
3.00000000005275
 20
41.90334229009931
 30
0.0
 40
1.0
100
AcDbArc
 50
40.6524411945455
 51
179.9999999999348
  0
LINE
  5
30FE
330
3090
100
AcDbEntity
  8
Calque1
100
AcDbLine
 10
10.33844014465649
 20
50.39996274128089
 30
0.0
 11
10.33844014464921
 21
42.70461247529407
 31
0.0
  0
ARC
  5
30FF
330
3090
100
AcDbEntity
  8
Calque1
100
AcDbCircle
 10
9.338440144656487
 20
50.39996274128203
 30
0.0
 40
1.0
100
AcDbArc
 50
359.9999999999349
 51
40.65244119453968
  0
LINE
  5
3100
330
3090
100
AcDbEntity
  8
Calque1
100
AcDbLine
 10
10.09711549894746
 20
51.05143162526099
 30
0.0
 11
8.241324645774511
 21
53.2126135598752
 31
0.0
  0
LINE
  5
3101
330
3090
100
AcDbEntity
  8
Calque1
100
AcDbLine
 10
-8.074615841449483
 20
-29.26283754373617
 30
0.0
 11
-3.695938218757873
 21
-18.5725148565923
 31
0.0
  0
ARC
  5
3102
330
3090
100
AcDbEntity
  8
Calque1
100
AcDbCircle
 10
-8.999999999943611
 20
-28.88380699192067
 30
0.0
 40
1.0
100
AcDbArc
 50
180.0
 51
337.7263542699962
  0
ARC
  5
3103
330
3090
100
AcDbEntity
  8
Calque1
100
AcDbCircle
 10
-4.621322377251998
 20
-18.19348430477703
 30
0.0
 40
1.0
100
AcDbArc
 50
337.7263542699962
 51
135.7452819748006
  0
LINE
  5
3104
330
3090
100
AcDbEntity
  8
Calque1
100
AcDbLine
 10
-9.716244481331159
 20
-21.98973272590615
 30
0.0
 11
-5.337566858641366
 21
-17.49563486336365
 31
0.0
  0
ARC
  5
3105
330
3090
100
AcDbEntity
  8
Calque1
100
AcDbCircle
 10
-8.999999999943611
 20
-22.68758216731885
 30
0.0
 40
1.0
100
AcDbArc
 50
135.7452819746739
 51
180.0
  0
LINE
  5
3106
330
3090
100
AcDbEntity
  8
Calque1
100
AcDbLine
 10
-9.999999999943613
 20
-22.68758216731885
 30
0.0
 11
-9.999999999943613
 21
-28.88380699192067
 31
0.0
  0
LINE
  5
3107
330
3090
100
AcDbEntity
  8
Calque1
100
AcDbLine
 10
8.074615841595003
 20
-29.26283754371843
 30
0.0
 11
3.695938218879746
 21
-18.57251485658412
 31
0.0
  0
ARC
  5
3108
330
3090
100
AcDbEntity
  8
Calque1
100
AcDbCircle
 10
9.000000000087309
 20
-28.8838069919009
 30
0.0
 40
1.0
100
AcDbArc
 50
202.2736457301292
 51
0.0000000001237617
  0
ARC
  5
3109
330
3090
100
AcDbEntity
  8
Calque1
100
AcDbCircle
 10
4.621322377372051
 20
-18.19348430476691
 30
0.0
 40
1.0
100
AcDbArc
 50
44.25471802533529
 51
202.2736457301292
  0
LINE
  5
310A
330
3090
100
AcDbEntity
  8
Calque1
100
AcDbLine
 10
9.716244481460305
 20
-21.98973272588478
 30
0.0
 11
5.337566858759601
 21
-17.49563486335194
 31
0.0
  0
ARC
  5
310B
330
3090
100
AcDbEntity
  8
Calque1
100
AcDbCircle
 10
9.000000000074578
 20
-22.68758216729907
 30
0.0
 40
1.0
100
AcDbArc
 50
0.0000000001237617
 51
44.25471802536409
  0
LINE
  5
310C
330
3090
100
AcDbEntity
  8
Calque1
100
AcDbLine
 10
10.00000000007458
 20
-22.6875821672968
 30
0.0
 11
10.00000000008731
 21
-28.88380699189861
 31
0.0
  0
LINE
  5
310D
330
3090
100
AcDbEntity
  8
Calque1
100
AcDbLine
 10
2.000000000058206
 20
-48.20615199515122
 30
0.0
 11
2.000000000065483
 21
-56.66077004243152
 31
0.0
  0
ARC
  5
310E
330
3090
100
AcDbEntity
  8
Calque1
100
AcDbCircle
 10
3.000000000065482
 20
-56.66077004243209
 30
0.0
 40
1.0
100
AcDbArc
 50
179.9999999999674
 51
220.439251576303
  0
LINE
  5
310F
330
3090
100
AcDbEntity
  8
Calque1
100
AcDbLine
 10
2.238905878206423
 20
-57.30941149783894
 30
0.0
 11
5.238905878208242
 21
-60.82951084785316
 31
0.0
  0
ARC
  5
3110
330
3090
100
AcDbEntity
  8
Calque1
100
AcDbCircle
 10
6.000000000067303
 20
-60.18086939244529
 30
0.0
 40
1.000000000000657
100
AcDbArc
 50
220.439251576318
 51
0.0000000000521102
  0
LINE
  5
3111
330
3090
100
AcDbEntity
  8
Calque1
100
AcDbLine
 10
7.000000000065482
 20
-60.1808693924445
 30
0.0
 11
7.000000000052749
 21
-44.90583932812774
 31
0.0
  0
LINE
  5
3112
330
3090
100
AcDbEntity
  8
Calque1
100
AcDbLine
 10
5.260028206259448
 20
-44.23320142822285
 30
0.0
 11
2.260028206263085
 21
-47.53351409524463
 31
0.0
  0
ARC
  5
3113
330
3090
100
AcDbEntity
  8
Calque1
100
AcDbCircle
 10
6.000000000052749
 20
-44.90583932812865
 30
0.0
 40
1.0
100
AcDbArc
 50
0.0000000000521102
 51
137.7290128900765
  0
ARC
  5
3114
330
3090
100
AcDbEntity
  8
Calque1
100
AcDbCircle
 10
3.000000000058206
 20
-48.20615199514794
 30
0.0
 40
0.999999999999723
100
AcDbArc
 50
137.729012890231
 51
180.0000000001888
  0
LINE
  5
3115
330
3090
100
AcDbEntity
  8
Calque1
100
AcDbLine
 10
9.268767230963931
 20
29.26283754377482
 30
0.0
 11
4.890089608248671
 21
18.57251485664051
 31
0.0
  0
ARC
  5
3116
330
3090
100
AcDbEntity
  8
Calque1
100
AcDbCircle
 10
10.19415138945624
 20
28.88380699195727
 30
0.0
 40
1.0
100
AcDbArc
 50
359.9999999998697
 51
157.7263542698707
  0
ARC
  5
3117
330
3090
100
AcDbEntity
  8
Calque1
100
AcDbCircle
 10
5.815473766740979
 20
18.1934843048233
 30
0.0
 40
1.0
100
AcDbArc
 50
157.7263542698707
 51
315.7452819746647
  0
LINE
  5
3118
330
3090
100
AcDbEntity
  8
Calque1
100
AcDbLine
 10
10.91039587082923
 20
21.98973272594117
 30
0.0
 11
6.531718248128527
 21
17.49563486340832
 31
0.0
  0
ARC
  5
3119
330
3090
100
AcDbEntity
  8
Calque1
100
AcDbCircle
 10
10.1941513894435
 20
22.68758216735546
 30
0.0
 40
1.0
100
AcDbArc
 50
315.7452819746359
 51
359.9999999998697
  0
LINE
  5
311A
330
3090
100
AcDbEntity
  8
Calque1
100
AcDbLine
 10
11.1941513894435
 20
22.68758216735319
 30
0.0
 11
11.19415138945623
 21
28.883806991955
 31
0.0
  0
LINE
  5
311B
330
3090
100
AcDbEntity
  8
Calque1
100
AcDbLine
 10
-9.268767230851151
 20
29.26283754377482
 30
0.0
 11
-4.890089608135894
 21
18.57251485664051
 31
0.0
  0
ARC
  5
311C
330
3090
100
AcDbEntity
  8
Calque1
100
AcDbCircle
 10
-10.19415138934346
 20
28.88380699195727
 30
0.0
 40
1.0
100
AcDbArc
 50
22.27364573010898
 51
180.0000000001302
  0
ARC
  5
311D
330
3090
100
AcDbEntity
  8
Calque1
100
AcDbCircle
 10
-5.8154737666282
 20
18.1934843048233
 30
0.0
 40
1.0
100
AcDbArc
 50
224.2547180253353
 51
22.27364573010898
  0
LINE
  5
311E
330
3090
100
AcDbEntity
  8
Calque1
100
AcDbLine
 10
-10.91039587071645
 20
21.98973272594117
 30
0.0
 11
-6.531718248015749
 21
17.49563486340832
 31
0.0
  0
ARC
  5
311F
330
3090
100
AcDbEntity
  8
Calque1
100
AcDbCircle
 10
-10.19415138933073
 20
22.68758216735546
 30
0.0
 40
1.0
100
AcDbArc
 50
180.0000000001302
 51
224.2547180253491
  0
LINE
  5
3120
330
3090
100
AcDbEntity
  8
Calque1
100
AcDbLine
 10
-11.19415138933073
 20
22.68758216735319
 30
0.0
 11
-11.19415138934346
 21
28.883806991955
 31
0.0
  0
LINE
  5
3121
330
3090
100
AcDbEntity
  8
Calque1
100
AcDbLine
 10
-7.756235083330465
 20
73.82696161342881
 30
0.0
 11
-7.756235083330465
 21
76.53254417741152
 31
0.0
  0
LINE
  5
3122
330
3090
100
AcDbEntity
  8
Calque1
100
AcDbLine
 10
0.7586753543837405
 20
65.3074438147662
 30
0.0
 11
7.514910437743309
 21
73.17549272947826
 31
0.0
  0
ARC
  5
3123
330
3090
100
AcDbEntity
  8
Calque1
100
AcDbCircle
 10
6.756235083452337
 20
73.82696161345575
 30
0.0
 40
1.0
100
AcDbArc
 50
319.3475588057109
 51
0.0000000002279822
  0
LINE
  5
3124
330
3090
100
AcDbEntity
  8
Calque1
100
AcDbLine
 10
7.144732119955732
 20
77.45399415037161
 30
0.0
 11
3.380413829001553
 21
79.04108682332367
 31
0.0
  0
ARC
  5
3125
330
3090
100
AcDbEntity
  8
Calque1
100
AcDbCircle
 10
6.756235083441424
 20
76.53254417743847
 30
0.0
 40
1.0
100
AcDbArc
 50
0.0000000002279822
 51
67.13898709849631
  0
ARC
  5
3126
330
3090
100
AcDbEntity
  8
Calque1
100
AcDbCircle
 10
2.991916792487245
 20
78.11963685039224
 30
0.0
 40
0.9999999999979284
100
AcDbArc
 50
67.13898709849631
 51
90.00000000020843
  0
LINE
  5
3127
330
3090
100
AcDbEntity
  8
Calque1
100
AcDbLine
 10
2.991916792483607
 20
79.11963685039006
 30
0.0
 11
0.0000000000491127
 21
79.1196368503779
 31
0.0
  0
LINE
  5
3128
330
3090
100
AcDbEntity
  8
Calque1
100
AcDbLine
 10
7.756235083452337
 20
73.82696161345973
 30
0.0
 11
7.756235083441424
 21
76.53254417744243
 31
0.0
  0
LINE
  5
3129
330
3090
100
AcDbEntity
  8
Calque1
100
AcDbLine
 10
-35.14914822545506
 20
-23.62954820997675
 30
0.0
 11
-33.35869343938794
 21
-26.05272010089539
 31
0.0
  0
ARC
  5
312A
330
3090
100
AcDbEntity
  8
Calque1
100
AcDbCircle
 10
-29.33734848565837
 20
-23.0813929961962
 30
0.0
 40
5.0
100
AcDbArc
 50
216.460283323193
 51
270.0
  0
ARC
  5
312B
330
3090
100
AcDbEntity
  8
Calque1
100
AcDbCircle
 10
-31.1278032717255
 20
-20.65822110527768
 30
0.0
 40
5.0
100
AcDbArc
 50
129.4344479435112
 51
216.460283323193
  0
ARC
  5
312C
330
3090
100
AcDbEntity
  8
Calque1
100
AcDbCircle
 10
0.0000000001000444
 20
-64.80237826067194
 30
0.0
 40
0.9999999999987494
100
AcDbArc
 50
40.43925157645444
 51
90.0000000001042
  0
LINE
  5
312D
330
3090
100
AcDbEntity
  8
Calque1
100
AcDbLine
 10
0.7610941219554661
 20
-64.1537368052649
 30
0.0
 11
2.696488966128525
 21
-66.42466418292838
 31
0.0
  0
ARC
  5
312E
330
3090
100
AcDbEntity
  8
Calque1
100
AcDbCircle
 10
1.935394844271285
 20
-67.07330563833625
 30
0.0
 40
1.0
100
AcDbArc
 50
270.0
 51
40.43925157643482
  0
LWPOLYLINE
  5
312F
330
3090
100
AcDbEntity
  8
Calque1
100
AcDbPolyline
 90
       12
 70
     0
 43
0.0
 10
0.0000000000563887
 20
-70.07330563833625
 10
5.344389536412563
 20
-70.07330563833625
 42
-0.2196847197505742
 10
6.105483658269803
 20
-70.42466418292827
 10
7.441988795661018
 20
-71.99287447140125
 42
0.2196847197508578
 10
8.964177039377318
 20
-72.69559156058504
 10
13.00000000010368
 20
-72.69559156058187
 42
0.4142135623730951
 10
15.00000000010368
 20
-70.69559156058028
 10
15.0000000000764
 20
-37.62069355617427
 42
-0.1989123673796978
 10
15.58578643770306
 20
-36.20647999380071
 10
22.24640734125023
 20
-29.54585909024581
 42
-0.1989123673796884
 10
25.78194124718175
 20
-28.08139299617574
 10
29.33734848578388
 20
-28.0813929961729
  0
LINE
  5
3130
330
3090
100
AcDbEntity
  8
Calque1
100
AcDbLine
 10
35.14914822553874
 20
23.6295482100611
 30
0.0
 11
33.35869343946979
 21
26.05272010097826
 31
0.0
  0
ARC
  5
3131
330
3090
100
AcDbEntity
  8
Calque1
100
AcDbCircle
 10
29.33734848574386
 20
23.0813929962759
 30
0.0
 40
5.0
100
AcDbArc
 50
36.4602833232256
 51
90.0
  0
LWPOLYLINE
  5
3132
330
3090
100
AcDbEntity
  8
Calque1
100
AcDbPolyline
 90
       10
 70
     0
 43
0.0
 10
20.40884123716569
 20
51.26800297460682
 10
20.40884123716751
 20
49.66291522442816
 42
-0.1989123673796348
 10
19.82305479954083
 20
48.24870166205471
 10
15.58578643763758
 20
44.01143330014771
 42
0.1989123673797353
 10
15.00000000001273
 20
42.59721973777344
 10
15.00000000001819
 20
35.40546118178998
 42
0.1989123673796318
 10
15.58578643764667
 20
33.99124761941744
 10
20.03117496673622
 20
29.54585909033573
 42
0.1989123673796884
 10
23.56670887266955
 20
28.08139299627136
 10
29.3373484857384
 20
28.0813929962759
  0
LINE
  5
3133
330
3090
100
AcDbEntity
  8
Calque1
100
AcDbLine
 10
19.82793219644372
 20
4.891285298461183
 30
0.0
 11
34.30377821725233
 21
16.79646203131938
 31
0.0
  0
ARC
  5
3134
330
3090
100
AcDbEntity
  8
Calque1
100
AcDbCircle
 10
31.12780327181281
 20
20.65822110535885
 30
0.0
 40
5.0
100
AcDbArc
 50
309.4344479436165
 51
36.4602833232256
  0
LINE
  5
3135
330
3090
100
AcDbEntity
  8
Calque1
100
AcDbLine
 10
19.827932196451
 20
-4.89128529837319
 30
0.0
 11
34.30377821727962
 21
-16.79646203120899
 31
0.0
  0
LINE
  5
3136
330
3090
100
AcDbEntity
  8
Calque1
100
AcDbLine
 10
35.14914822557694
 20
-23.62954820994878
 30
0.0
 11
33.35869343951163
 21
-26.0527201008689
 31
0.0
  0
ARC
  5
3137
330
3090
100
AcDbEntity
  8
Calque1
100
AcDbCircle
 10
29.33734848578024
 20
-23.08139299617289
 30
0.0
 40
5.0
100
AcDbArc
 50
270.0
 51
323.5397166768129
  0
ARC
  5
3138
330
3090
100
AcDbEntity
  8
Calque1
100
AcDbCircle
 10
31.12780327184555
 20
-20.65822110525289
 30
0.0
 40
5.0
100
AcDbArc
 50
323.5397166768129
 51
50.56555205639978
  0
LINE
  5
3139
330
3090
100
AcDbEntity
  8
Calque1
100
AcDbLine
 10
13.39999999991778
 20
81.27268151395526
 30
0.0
 11
13.39999999991778
 21
81.32268151395511
 31
0.0
  0
LINE
  5
313A
330
3090
100
AcDbEntity
  8
Calque1
100
AcDbLine
 10
-13.399999999805
 20
81.27268151395526
 30
0.0
 11
-13.399999999805
 21
81.32268151395511
 31
0.0
  0
ARC
  5
313B
330
3090
100
AcDbEntity
  8
Calque1
100
AcDbCircle
 10
-6.256441731606172
 20
-65.51129984231102
 30
0.0
 40
1.1
100
AcDbArc
 50
139.5607484237211
 51
319.5607484236669
  0
ARC
  5
313C
330
3090
100
AcDbEntity
  8
Calque1
100
AcDbCircle
 10
-5.324664246994871
 20
-64.41798340299725
 30
0.0
 40
1.1
100
AcDbArc
 50
319.560748423586
 51
139.560748423586
  0
LINE
  5
313D
330
3090
100
AcDbEntity
  8
Calque1
100
AcDbLine
 10
-7.093645265649683
 20
-64.79779424136154
 30
0.0
 11
-6.161867781042019
 21
-63.70447780204836
 31
0.0
  0
LINE
  5
313E
330
3090
100
AcDbEntity
  8
Calque1
100
AcDbLine
 10
-5.418513217646249
 20
-66.22542330642613
 30
0.0
 11
-4.486735733038584
 21
-65.13210686711295
 31
0.0
  0
ARC
  5
313F
330
3090
100
AcDbEntity
  8
Calque1
100
AcDbCircle
 10
6.256441731713491
 20
-65.51129984228703
 30
0.0
 40
1.1
100
AcDbArc
 50
220.4392515766012
 51
40.43925157656536
  0
ARC
  5
3140
330
3090
100
AcDbEntity
  8
Calque1
100
AcDbCircle
 10
5.324664247098552
 20
-64.4179834029769
 30
0.0
 40
1.1
100
AcDbArc
 50
40.43925157661039
 51
220.4392515766103
  0
LINE
  5
3141
330
3090
100
AcDbEntity
  8
Calque1
100
AcDbLine
 10
7.093645265753365
 20
-64.79779424133437
 30
0.0
 11
6.161867781142062
 21
-63.70447780202482
 31
0.0
  0
LINE
  5
3142
330
3090
100
AcDbEntity
  8
Calque1
100
AcDbLine
 10
5.418513217755389
 20
-66.22542330640545
 30
0.0
 11
4.486735733144087
 21
-65.13210686709578
 31
0.0
  0
LINE
  5
3143
330
3090
100
AcDbEntity
  8
Calque1
100
AcDbLine
 10
-1.935394844113034
 20
-68.07330563833625
 30
0.0
 11
1.935394844271285
 21
-68.07330563833625
 31
0.0
  0
LWPOLYLINE
  5
3144
330
3090
100
AcDbEntity
  8
Calque1
100
AcDbPolyline
 90
       12
 70
     0
 43
0.0
 10
0.0000000000600267
 20
-70.07330563833625
 10
-5.344389536296148
 20
-70.07330563833625
 42
0.2196847197505742
 10
-6.105483658153388
 20
-70.42466418292827
 10
-7.441988795544602
 20
-71.99287447140125
 42
-0.2196847197508578
 10
-8.964177039260903
 20
-72.69559156058504
 10
-12.99999999998727
 20
-72.69559156058187
 42
-0.4142135623730951
 10
-14.99999999998727
 20
-70.69559156058028
 10
-14.99999999995998
 20
-37.62069355617427
 42
0.1989123673796978
 10
-15.58578643758665
 20
-36.20647999380071
 10
-22.24640734113382
 20
-29.54585909024581
 42
0.1989123673796884
 10
-25.78194124706533
 20
-28.08139299617574
 10
-29.33734848566746
 20
-28.0813929961729
  0
ENDBLK
  5
3147
330
3090
100
AcDbEntity
  8
0
100
AcDbBlockEnd
  0
ENDSEC
  0
SECTION
  2
ENTITIES
  0
MTEXT
  5
B0A
102
{ACAD_XDICTIONARY
360
1EBD
102
}
330
1F
100
AcDbEntity
  8
0
  6
JIS_09_08
100
AcDbMText
 10
55.52058299999999
 20
304.5555175444699
 30
0.0
 40
10.0
 41
327.756144
 46
0.0
 71
     1
 72
     5
  1
{\fISOCPEUR|b0|i0|c0|p34;6mm (x4)}
 73
     1
 44
1.0
1001
ACAD
1000
ACAD_MTEXT_COLUMN_INFO_BEGIN
1070
    75
1070
     2
1070
    79
1070
     0
1070
    76
1070
     1
1070
    78
1070
     0
1070
    48
1040
327.756144
1070
    49
1040
12.5
1070
    50
1070
     1
1040
0.0
1000
ACAD_MTEXT_COLUMN_INFO_END
  0
LINE
  5
B0B
330
1F
100
AcDbEntity
  8
Calque1
100
AcDbLine
 10
0.0
 20
343.1959711792747
 30
0.0
 11
811.6543081141454
 21
343.1959711792751
 31
0.0
  0
MTEXT
  5
B10
102
{ACAD_XDICTIONARY
360
1EC1
102
}
330
1F
100
AcDbEntity
  8
0
  6
JIS_09_08
100
AcDbMText
 10
307.2673697602756
 20
304.5555175444699
 30
0.0
 40
10.0
 41
327.756144
 46
0.0
 71
     1
 72
     5
  1
{\fISOCPEUR|b0|i0|c0|p34;2.5mm (x1)}
 73
     1
 44
1.0
1001
ACAD
1000
ACAD_MTEXT_COLUMN_INFO_BEGIN
1070
    75
1070
     2
1070
    79
1070
     0
1070
    76
1070
     1
1070
    78
1070
     0
1070
    48
1040
327.756144
1070
    49
1040
12.5
1070
    50
1070
     1
1040
0.0
1000
ACAD_MTEXT_COLUMN_INFO_END
  0
MTEXT
  5
C0B
102
{ACAD_XDICTIONARY
360
1EC3
102
}
330
1F
100
AcDbEntity
  8
0
  6
JIS_09_08
100
AcDbMText
 10
438.6501707308306
 20
304.5555175444699
 30
0.0
 40
10.0
 41
327.756144
 46
0.0
 71
     1
 72
     5
  1
{\fISOCPEUR|b0|i0|c0|p34;2mm (x1)}
 73
     1
 44
1.0
1001
ACAD
1000
ACAD_MTEXT_COLUMN_INFO_BEGIN
1070
    75
1070
     2
1070
    79
1070
     0
1070
    76
1070
     1
1070
    78
1070
     0
1070
    48
1040
327.756144
1070
    49
1040
12.5
1070
    50
1070
     1
1040
0.0
1000
ACAD_MTEXT_COLUMN_INFO_END
  0
MTEXT
  5
D55
102
{ACAD_XDICTIONARY
360
1EC5
102
}
330
1F
100
AcDbEntity
  8
0
  6
JIS_09_08
100
AcDbMText
 10
291.1953227308306
 20
79.77638129974639
 30
0.0
 40
10.0
 41
327.756144
 46
0.0
 71
     1
 72
     5
  1
\pi133.87807;{\fISOCPEUR|b0|i0|c0|p34;chamfered\P\pi135.87807;(top side)\P\pi117.87807;+6 countersunk}
 73
     1
 44
1.0
1001
ACAD
1000
ACAD_MTEXT_COLUMN_INFO_BEGIN
1070
    75
1070
     2
1070
    79
1070
     0
1070
    76
1070
     1
1070
    78
1070
     0
1070
    48
1040
327.756144
1070
    49
1040
12.5
1070
    50
1070
     1
1040
0.0
1000
ACAD_MTEXT_COLUMN_INFO_END
  0
MTEXT
  5
DB9
102
{ACAD_XDICTIONARY
360
1EC7
102
}
330
1F
100
AcDbEntity
  8
0
  6
JIS_09_08
100
AcDbMText
 10
553.9858738426254
 20
304.5555175444699
 30
0.0
 40
10.0
 41
327.756144
 46
0.0
 71
     1
 72
     5
  1
{\fISOCPEUR|b0|i0|c0|p34;2.5mm (x1)}
 73
     1
 44
1.0
1001
ACAD
1000
ACAD_MTEXT_COLUMN_INFO_BEGIN
1070
    75
1070
     2
1070
    79
1070
     0
1070
    76
1070
     1
1070
    78
1070
     0
1070
    48
1040
327.756144
1070
    49
1040
12.5
1070
    50
1070
     1
1040
0.0
1000
ACAD_MTEXT_COLUMN_INFO_END
  0
MTEXT
  5
E14
102
{ACAD_XDICTIONARY
360
1EC9
102
}
330
1F
100
AcDbEntity
  8
0
  6
JIS_09_08
100
AcDbMText
 10
718.6652774623305
 20
304.5555175444699
 30
0.0
 40
10.0
 41
327.756144
 46
0.0
 71
     1
 72
     5
  1
{\fISOCPEUR|b0|i0|c0|p34;3mm (x1)}
 73
     1
 44
1.0
1001
ACAD
1000
ACAD_MTEXT_COLUMN_INFO_BEGIN
1070
    75
1070
     2
1070
    79
1070
     0
1070
    76
1070
     1
1070
    78
1070
     0
1070
    48
1040
327.756144
1070
    49
1040
12.5
1070
    50
1070
     1
1040
0.0
1000
ACAD_MTEXT_COLUMN_INFO_END
  0
LINE
  5
E15
330
1F
100
AcDbEntity
  8
Calque1
100
AcDbLine
 10
0.0
 20
0.0
 30
0.0
 11
811.6543081141454
 21
0.0
 31
0.0
  0
MTEXT
  5
E16
102
{ACAD_XDICTIONARY
360
1ECB
102
}
330
1F
100
AcDbEntity
  8
0
  6
JIS_09_08
100
AcDbMText
 10
60.22104599999999
 20
334.6467641792747
 30
0.0
 40
10.0
 41
327.756144
 46
0.0
 71
     1
 72
     5
  1
{\fISOCPEUR|b0|i0|c0|p34;Arm 01}
 73
     1
 44
1.0
1001
ACAD
1000
ACAD_MTEXT_COLUMN_INFO_BEGIN
1070
    75
1070
     2
1070
    79
1070
     0
1070
    76
1070
     1
1070
    78
1070
     0
1070
    48
1040
327.756144
1070
    49
1040
12.5
1070
    50
1070
     1
1040
0.0
1000
ACAD_MTEXT_COLUMN_INFO_END
  0
MTEXT
  5
E18
102
{ACAD_XDICTIONARY
360
1ECF
102
}
330
1F
100
AcDbEntity
  8
0
  6
JIS_09_08
100
AcDbMText
 10
308.5558957602757
 20
334.6467641792747
 30
0.0
 40
10.0
 41
327.756144
 46
0.0
 71
     1
 72
     5
  1
{\fISOCPEUR|b0|i0|c0|p34;Bottom}
 73
     1
 44
1.0
1001
ACAD
1000
ACAD_MTEXT_COLUMN_INFO_BEGIN
1070
    75
1070
     2
1070
    79
1070
     0
1070
    76
1070
     1
1070
    78
1070
     0
1070
    48
1040
327.756144
1070
    49
1040
12.5
1070
    50
1070
     1
1040
0.0
1000
ACAD_MTEXT_COLUMN_INFO_END
  0
MTEXT
  5
E19
102
{ACAD_XDICTIONARY
360
1ED1
102
}
330
1F
100
AcDbEntity
  8
0
  6
JIS_09_08
100
AcDbMText
 10
440.0051237308306
 20
334.6467641792747
 30
0.0
 40
10.0
 41
327.756144
 46
0.0
 71
     1
 72
     5
  1
{\fISOCPEUR|b0|i0|c0|p34;Top 01}
 73
     1
 44
1.0
1001
ACAD
1000
ACAD_MTEXT_COLUMN_INFO_BEGIN
1070
    75
1070
     2
1070
    79
1070
     0
1070
    76
1070
     1
1070
    78
1070
     0
1070
    48
1040
327.756144
1070
    49
1040
12.5
1070
    50
1070
     1
1040
0.0
1000
ACAD_MTEXT_COLUMN_INFO_END
  0
MTEXT
  5
E1B
102
{ACAD_XDICTIONARY
360
1ED3
102
}
330
1F
100
AcDbEntity
  8
0
  6
JIS_09_08
100
AcDbMText
 10
549.6592458426253
 20
334.6467641792747
 30
0.0
 40
10.0
 41
327.756144
 46
0.0
 71
     1
 72
     5
  1
{\fISOCPEUR|b0|i0|c0|p34;Mid plate}
 73
     1
 44
1.0
1001
ACAD
1000
ACAD_MTEXT_COLUMN_INFO_BEGIN
1070
    75
1070
     2
1070
    79
1070
     0
1070
    76
1070
     1
1070
    78
1070
     0
1070
    48
1040
327.756144
1070
    49
1040
12.5
1070
    50
1070
     1
1040
0.0
1000
ACAD_MTEXT_COLUMN_INFO_END
  0
MTEXT
  5
E1C
102
{ACAD_XDICTIONARY
360
1ED5
102
}
330
1F
100
AcDbEntity
  8
0
  6
JIS_09_08
100
AcDbMText
 10
717.6169183942077
 20
334.6467641792747
 30
0.0
 40
10.0
 41
327.756144
 46
0.0
 71
     1
 72
     5
  1
{\fISOCPEUR|b0|i0|c0|p34;Sides plates}
 73
     1
 44
1.0
1001
ACAD
1000
ACAD_MTEXT_COLUMN_INFO_BEGIN
1070
    75
1070
     2
1070
    79
1070
     0
1070
    76
1070
     1
1070
    78
1070
     0
1070
    48
1040
327.756144
1070
    49
1040
12.5
1070
    50
1070
     1
1040
0.0
1000
ACAD_MTEXT_COLUMN_INFO_END
  0
MTEXT
  5
E1D
102
{ACAD_XDICTIONARY
360
1ED7
102
}
330
1F
100
AcDbEntity
  8
0
  6
JIS_09_08
100
AcDbMText
 10
-241.541346
 20
401.844459531952
 30
0.0
 40
100.0
 41
327.756144
 46
0.0
 71
     1
 72
     5
  1
{\fISOCPEUR|b0|i0|c0|p34;5"}
 73
     1
 44
1.0
1001
ACAD
1000
ACAD_MTEXT_COLUMN_INFO_BEGIN
1070
    75
1070
     2
1070
    79
1070
     0
1070
    76
1070
     1
1070
    78
1070
     0
1070
    48
1040
327.756144
1070
    49
1040
12.5
1070
    50
1070
     1
1040
0.0
1000
ACAD_MTEXT_COLUMN_INFO_END
  0
MTEXT
  5
17A5
102
{ACAD_XDICTIONARY
360
1ED9
102
}
330
1F
100
AcDbEntity
  8
0
  6
JIS_09_08
100
AcDbMText
 10
-80.35243299999999
 20
89.03678329974638
 30
0.0
 40
10.0
 41
327.756144
 46
0.0
 71
     1
 72
     5
  1
\pi133.87807;{\fISOCPEUR|b0|i0|c0|p34;chamfered\P\pi138.87807;(2 sides)\P\pi127.87807;+ pressnuts}
 73
     1
 44
1.0
1001
ACAD
1000
ACAD_MTEXT_COLUMN_INFO_BEGIN
1070
    75
1070
     2
1070
    79
1070
     0
1070
    76
1070
     1
1070
    78
1070
     0
1070
    48
1040
327.756144
1070
    49
1040
12.5
1070
    50
1070
     1
1040
0.0
1000
ACAD_MTEXT_COLUMN_INFO_END
  0
MTEXT
  5
184A
102
{ACAD_XDICTIONARY
360
1EDB
102
}
330
1F
100
AcDbEntity
  8
0
  6
JIS_09_08
100
AcDbMText
 10
416.5809498426254
 20
79.77638129974639
 30
0.0
 40
10.0
 41
327.756144
 46
0.0
 71
     1
 72
     5
  1
\pi109.87807;{\fISOCPEUR|b0|i0|c0|p34;4 countersunk M3\P4 countersunk M2}
 73
     1
 44
1.0
1001
ACAD
1000
ACAD_MTEXT_COLUMN_INFO_BEGIN
1070
    75
1070
     2
1070
    79
1070
     0
1070
    76
1070
     1
1070
    78
1070
     0
1070
    48
1040
327.756144
1070
    49
1040
12.5
1070
    50
1070
     1
1040
0.0
1000
ACAD_MTEXT_COLUMN_INFO_END
  0
MTEXT
  5
1E3B
102
{ACAD_XDICTIONARY
360
1EDF
102
}
330
1F
100
AcDbEntity
  8
0
  6
JIS_09_08
100
AcDbMText
 10
192.9194842375139
 20
304.5555175444699
 30
0.0
 40
10.0
 41
327.756144
 46
0.0
 71
     1
 72
     5
  1
{\fISOCPEUR|b0|i0|c0|p34;6mm (x1)}
 73
     1
 44
1.0
1001
ACAD
1000
ACAD_MTEXT_COLUMN_INFO_BEGIN
1070
    75
1070
     2
1070
    79
1070
     0
1070
    76
1070
     1
1070
    78
1070
     0
1070
    48
1040
327.756144
1070
    49
1040
12.5
1070
    50
1070
     1
1040
0.0
1000
ACAD_MTEXT_COLUMN_INFO_END
  0
MTEXT
  5
1E3C
102
{ACAD_XDICTIONARY
360
1EE1
102
}
330
1F
100
AcDbEntity
  8
0
  6
JIS_09_08
100
AcDbMText
 10
199.0818122375138
 20
334.6467641792747
 30
0.0
 40
10.0
 41
327.756144
 46
0.0
 71
     1
 72
     5
  1
{\fISOCPEUR|b0|i0|c0|p34;Key}
 73
     1
 44
1.0
1001
ACAD
1000
ACAD_MTEXT_COLUMN_INFO_BEGIN
1070
    75
1070
     2
1070
    79
1070
     0
1070
    76
1070
     1
1070
    78
1070
     0
1070
    48
1040
327.756144
1070
    49
1040
12.5
1070
    50
1070
     1
1040
0.0
1000
ACAD_MTEXT_COLUMN_INFO_END
  0
LINE
  5
253C
330
1F
100
AcDbEntity
  8
Calque1
100
AcDbLine
 10
85.47089497842023
 20
121.9460859393958
 30
0.0
 11
82.32167855942202
 21
126.4282222255019
 31
0.0
  0
ARC
  5
253D
330
1F
100
AcDbEntity
  8
Calque1
100
AcDbCircle
 10
86.412805723425
 20
129.3027097499063
 30
0.0
 40
5.0
100
AcDbArc
 50
184.5137163681584
 51
215.0924547159615
  0
ARC
  5
253E
330
1F
100
AcDbEntity
  8
Calque1
100
AcDbCircle
 10
86.28912041122251
 20
122.5209834442756
 30
0.0
 40
1.0
100
AcDbArc
 50
215.0924547159615
 51
324.9075452842016
  0
CIRCLE
  5
253F
330
1F
100
AcDbEntity
  8
Calque1
100
AcDbCircle
 10
86.28912041120475
 20
155.0436341785568
 30
0.0
 40
1.5
  0
LINE
  5
2540
330
1F
100
AcDbEntity
  8
Calque1
100
AcDbLine
 10
91.28912041107946
 20
192.2035945321779
 30
0.0
 11
91.28912041100887
 21
204.3917551660722
 31
0.0
  0
LINE
  5
2541
330
1F
100
AcDbEntity
  8
Calque1
100
AcDbLine
 10
81.28912041108046
 20
192.2035945321795
 30
0.0
 11
81.28912041100855
 21
204.3917551660974
 31
0.0
  0
ARC
  5
2542
330
1F
100
AcDbEntity
  8
Calque1
100
AcDbCircle
 10
76.2891204110797
 20
192.2035945321702
 30
0.0
 40
5.0
100
AcDbArc
 50
357.0258353797797
 51
0.0000000001351609
  0
LINE
  5
2543
330
1F
100
AcDbEntity
  8
Calque1
100
AcDbLine
 10
79.38217112111516
 20
155.37037972365
 30
0.0
 11
81.28238557190821
 21
191.9441662498831
 31
0.0
  0
ARC
  5
2544
330
1F
100
AcDbEntity
  8
Calque1
100
AcDbCircle
 10
84.37543628194333
 20
155.1109514413627
 30
0.0
 40
5.0
100
AcDbArc
 50
177.0258353797797
 51
184.5137163681584
  0
CIRCLE
  5
2545
330
1F
100
AcDbEntity
  8
Calque1
100
AcDbCircle
 10
86.28912041120475
 20
131.4862118451603
 30
0.0
 40
3.25
  0
CIRCLE
  5
2546
330
1F
100
AcDbEntity
  8
Calque1
100
AcDbCircle
 10
86.28912041120475
 20
131.4862118451603
 30
0.0
 40
1.5
  0
CIRCLE
  5
2547
330
1F
100
AcDbEntity
  8
Calque1
100
AcDbCircle
 10
86.28912041120475
 20
131.4862118451603
 30
0.0
 40
2.149999999999999
  0
CIRCLE
  5
2548
330
1F
100
AcDbEntity
  8
Calque1
100
AcDbCircle
 10
86.28912041101163
 20
230.2849004556381
 30
0.0
 40
3.5
  0
LINE
  5
2549
330
1F
100
AcDbEntity
  8
Calque1
100
AcDbLine
 10
88.84774041948821
 20
218.5338922917411
 30
0.0
 11
87.70333397338346
 21
219.6782987378456
 31
0.0
  0
ARC
  5
254A
330
1F
100
AcDbEntity
  8
Calque1
100
AcDbCircle
 10
86.28912041100903
 20
218.2640851754718
 30
0.0
 40
2.0
100
AcDbArc
 50
45.00000000004422
 51
135.0000000000459
  0
LINE
  5
254B
330
1F
100
AcDbEntity
  8
Calque1
100
AcDbLine
 10
84.10761304459134
 20
252.5445844989723
 30
0.0
 11
76.90258186162478
 21
244.912255178687
 31
0.0
  0
ARC
  5
254C
330
1F
100
AcDbEntity
  8
Calque1
100
AcDbCircle
 10
80.53842747232719
 20
241.4799634231496
 30
0.0
 40
5.0
100
AcDbArc
 50
136.6495935986188
 51
180.0000000000277
  0
LINE
  5
254E
330
1F
100
AcDbEntity
  8
Calque1
100
AcDbLine
 10
75.53842747232846
 20
241.4799634231487
 30
0.0
 11
75.53842747232462
 21
221.817072040563
 31
0.0
  0
LINE
  5
254F
330
1F
100
AcDbEntity
  8
Calque1
100
AcDbLine
 10
80.26550898432324
 20
241.5026901195165
 30
0.0
 11
85.83925122727469
 21
238.6950869143436
 31
0.0
  0
LINE
  5
2551
330
1F
100
AcDbEntity
  8
Calque1
100
AcDbLine
 10
88.47062777743506
 20
252.544584498972
 30
0.0
 11
95.67565896040424
 21
244.9122551786832
 31
0.0
  0
ARC
  5
2552
330
1F
100
AcDbEntity
  8
Calque1
100
AcDbCircle
 10
86.28912041101319
 20
250.4852094456506
 30
0.0
 40
3.0
100
AcDbArc
 50
43.35040640138076
 51
136.6495935984958
  0
LINE
  5
2555
330
1F
100
AcDbEntity
  8
Calque1
100
AcDbLine
 10
97.0398133496986
 20
241.4799634231461
 30
0.0
 11
97.03981334969581
 21
221.8170720405588
 31
0.0
  0
ARC
  5
2556
330
1F
100
AcDbEntity
  8
Calque1
100
AcDbCircle
 10
92.03981334970027
 20
241.4799634231477
 30
0.0
 40
5.0
100
AcDbArc
 50
0.0000000000276835
 51
43.35040640138076
  0
LINE
  5
2559
330
1F
100
AcDbEntity
  8
Calque1
100
AcDbLine
 10
92.31273183770458
 20
241.5026901195157
 30
0.0
 11
86.73898959474948
 21
238.6950869143436
 31
0.0
  0
ARC
  5
255A
330
1F
100
AcDbEntity
  8
Calque1
100
AcDbCircle
 10
86.28912041101381
 20
239.5881813760454
 30
0.0
 40
1.0
100
AcDbArc
 50
243.2647087746988
 51
296.7352912252595
  0
ARC
  5
255E
330
1F
100
AcDbEntity
  8
Calque1
100
AcDbCircle
 10
61.28912041100855
 20
204.3917551660877
 30
0.0
 40
20.0
100
AcDbArc
 50
0.0000000000276835
 51
25.01726796173203
  0
LINE
  5
255F
330
1F
100
AcDbEntity
  8
Calque1
100
AcDbLine
 10
96.75835447772215
 20
220.5483978762297
 30
0.0
 11
93.16551289083662
 21
212.8495829282675
 31
0.0
  0
ARC
  5
2560
330
1F
100
AcDbEntity
  8
Calque1
100
AcDbCircle
 10
111.2891204110088
 20
204.3917551660818
 30
0.0
 40
20.0
100
AcDbArc
 50
154.9827320382931
 51
180.0000000000277
  0
LINE
  5
2561
330
1F
100
AcDbEntity
  8
Calque1
100
AcDbLine
 10
89.24588760913318
 20
216.2738959531485
 30
0.0
 11
87.19530078701652
 21
211.8798562783055
 31
0.0
  0
ARC
  5
2562
330
1F
100
AcDbEntity
  8
Calque1
100
AcDbCircle
 10
86.28912041100903
 20
212.3027476664165
 30
0.0
 40
1.0
100
AcDbArc
 50
205.017267961732
 51
334.9827320382931
  0
ARC
  5
2563
330
1F
100
AcDbEntity
  8
Calque1
100
AcDbCircle
 10
87.43352685711593
 20
217.1196787293644
 30
0.0
 40
2.0
100
AcDbArc
 50
334.9827320382931
 51
45.00000000004422
  0
ARC
  5
2564
330
1F
100
AcDbEntity
  8
Calque1
100
AcDbCircle
 10
94.03981334969669
 20
221.8170720405606
 30
0.0
 40
3.0
100
AcDbArc
 50
334.9827320382931
 51
0.0000000000276835
  0
LINE
  5
2565
330
1F
100
AcDbEntity
  8
Calque1
100
AcDbLine
 10
83.73050040253437
 20
218.5338922917396
 30
0.0
 11
84.8749068486367
 21
219.6782987378473
 31
0.0
  0
LINE
  5
2566
330
1F
100
AcDbEntity
  8
Calque1
100
AcDbLine
 10
83.33235321288706
 20
216.2738959531483
 30
0.0
 11
85.38294003500084
 21
211.8798562783064
 31
0.0
  0
ARC
  5
2567
330
1F
100
AcDbEntity
  8
Calque1
100
AcDbCircle
 10
85.14471396490455
 20
217.119678729367
 30
0.0
 40
1.999999999999999
100
AcDbArc
 50
134.9999999999442
 51
205.017267961732
  0
LINE
  5
2568
330
1F
100
AcDbEntity
  8
Calque1
100
AcDbLine
 10
75.81988634429951
 20
220.5483978762334
 30
0.0
 11
79.41272793117988
 21
212.8495829282681
 31
0.0
  0
ARC
  5
2569
330
1F
100
AcDbEntity
  8
Calque1
100
AcDbCircle
 10
78.53842747232483
 20
221.8170720405597
 30
0.0
 40
3.0
100
AcDbArc
 50
180.0000000000277
 51
205.017267961732
  0
CIRCLE
  5
256A
330
1F
100
AcDbEntity
  8
Calque1
100
AcDbCircle
 10
91.92215628186245
 20
235.9654732152893
 30
0.0
 40
1.5
  0
CIRCLE
  5
256B
330
1F
100
AcDbEntity
  8
Calque1
100
AcDbCircle
 10
80.65597344131578
 20
235.9653630440044
 30
0.0
 40
1.5
  0
CIRCLE
  5
256C
330
1F
100
AcDbEntity
  8
Calque1
100
AcDbCircle
 10
91.92226738070491
 20
224.6044378672721
 30
0.0
 40
1.5
  0
CIRCLE
  5
256D
330
1F
100
AcDbEntity
  8
Calque1
100
AcDbCircle
 10
80.65608454015825
 20
224.6043276959873
 30
0.0
 40
1.5
  0
LINE
  5
256E
330
1F
100
AcDbEntity
  8
Calque1
100
AcDbLine
 10
81.42831311147721
 20
128.9092209934741
 30
0.0
 11
79.39094366999575
 21
154.7174626849307
 31
0.0
  0
LINE
  5
256F
330
1F
100
AcDbEntity
  8
Calque1
100
AcDbLine
 10
87.10734584402326
 20
121.9460859393996
 30
0.0
 11
90.25656226300435
 21
126.4282222255186
 31
0.0
  0
ARC
  5
2570
330
1F
100
AcDbEntity
  8
Calque1
100
AcDbCircle
 10
86.16543509899134
 20
129.3027097499056
 30
0.0
 40
5.0
100
AcDbArc
 50
324.9075452842475
 51
355.4862836320278
  0
ARC
  5
2571
330
1F
100
AcDbEntity
  8
Calque1
100
AcDbCircle
 10
96.28912041109982
 20
192.2035945322084
 30
0.0
 40
5.0
100
AcDbArc
 50
180.0000000001417
 51
182.9741646204991
  0
LINE
  5
2572
330
1F
100
AcDbEntity
  8
Calque1
100
AcDbLine
 10
93.19606970120162
 20
155.3703797236759
 30
0.0
 11
91.29585525027072
 21
191.9441662499022
 31
0.0
  0
ARC
  5
2573
330
1F
100
AcDbEntity
  8
Calque1
100
AcDbCircle
 10
88.20280454037506
 20
155.1109514413693
 30
0.0
 40
5.0
100
AcDbArc
 50
355.4862836320278
 51
2.974164620499154
  0
LINE
  5
2574
330
1F
100
AcDbEntity
  8
Calque1
100
AcDbLine
 10
91.14992771093975
 20
128.9092209934935
 30
0.0
 11
93.18729715232342
 21
154.7174626849572
 31
0.0
  0
LINE
  5
2593
330
1F
100
AcDbEntity
  8
Calque1
100
AcDbLine
 10
206.6081279314091
 20
169.1880369586711
 30
0.0
 11
202.0468067221206
 21
169.2969505860937
 31
0.0
  0
ARC
  5
2594
330
1F
100
AcDbEntity
  8
Calque1
100
AcDbCircle
 10
206.631998776627
 20
170.1877520094481
 30
0.0
 40
1.0
100
AcDbArc
 50
268.6321713926696
 51
18.44726196091003
  0
ARC
  5
2595
330
1F
100
AcDbEntity
  8
Calque1
100
AcDbCircle
 10
199.3782288356866
 20
167.7281215143557
 30
0.0
 40
2.363642668557635
100
AcDbArc
 50
338.0812850441757
 51
21.91871495709248
  0
ARC
  5
2596
330
1F
100
AcDbEntity
  8
Calque1
100
AcDbCircle
 10
202.0348712995343
 20
166.6591499680648
 30
0.0
 40
0.5
100
AcDbArc
 50
158.0812850441765
 51
271.3678286075389
  0
ARC
  5
2597
330
1F
100
AcDbEntity
  8
Calque1
100
AcDbCircle
 10
202.0348712995107
 20
168.7970930607057
 30
0.0
 40
0.5
100
AcDbArc
 50
88.63217139246113
 51
201.9187149570917
  0
ARC
  5
2598
330
1F
100
AcDbEntity
  8
Calque1
100
AcDbCircle
 10
220.5434151704936
 20
167.728121514368
 30
0.0
 40
2.363642668557635
100
AcDbArc
 50
158.0812850431646
 51
201.918714956106
  0
ARC
  5
2599
330
1F
100
AcDbEntity
  8
Calque1
100
AcDbCircle
 10
217.8867727066514
 20
166.6591499680644
 30
0.0
 40
0.5
100
AcDbArc
 50
268.6321713924611
 51
21.91871495610598
  0
ARC
  5
259A
330
1F
100
AcDbEntity
  8
Calque1
100
AcDbCircle
 10
217.886772706666
 20
168.7970930607057
 30
0.0
 40
0.5
100
AcDbArc
 50
338.081285043213
 51
91.36782860753887
  0
ARC
  5
259B
330
1F
100
AcDbEntity
  8
Calque1
100
AcDbCircle
 10
209.9608220030874
 20
167.0431221089502
 30
0.0
 40
5.761234520351689
100
AcDbArc
 50
64.31646085384504
 51
115.6835391461684
  0
ARC
  5
259C
330
1F
100
AcDbEntity
  8
Calque1
100
AcDbCircle
 10
212.2410420485463
 20
171.7845549342378
 30
0.0
 40
0.5
100
AcDbArc
 50
341.5527380389321
 51
64.3164608538316
  0
ARC
  5
259D
330
1F
100
AcDbEntity
  8
Calque1
100
AcDbCircle
 10
207.6806019576248
 20
171.7845549342364
 30
0.0
 40
0.5
100
AcDbArc
 50
115.6835391461684
 51
198.4472619610422
  0
ARC
  5
259E
330
1F
100
AcDbEntity
  8
Calque1
100
AcDbCircle
 10
209.9608220030874
 20
168.4131209198176
 30
0.0
 40
5.761234520351689
100
AcDbArc
 50
244.3164608538316
 51
295.6835391461549
  0
ARC
  5
259F
330
1F
100
AcDbEntity
  8
Calque1
100
AcDbCircle
 10
207.6806019576267
 20
163.6716880945304
 30
0.0
 40
0.5
100
AcDbArc
 50
161.55273803909
 51
244.3164608538316
  0
ARC
  5
25A0
330
1F
100
AcDbEntity
  8
Calque1
100
AcDbCircle
 10
212.2410420485445
 20
163.6716880945291
 30
0.0
 40
0.5
100
AcDbArc
 50
295.6835391461684
 51
18.447261960886
  0
LINE
  5
25A1
330
1F
100
AcDbEntity
  8
Calque1
100
AcDbLine
 10
207.5806140939036
 20
170.5041836447549
 30
0.0
 11
207.2062942989884
 21
171.626339116583
 31
0.0
  0
LINE
  5
25A2
330
1F
100
AcDbEntity
  8
Calque1
100
AcDbLine
 10
206.6081279314091
 20
166.2682060700985
 30
0.0
 11
202.0468067221442
 21
166.1592924426763
 31
0.0
  0
ARC
  5
25A3
330
1F
100
AcDbEntity
  8
Calque1
100
AcDbCircle
 10
206.631998776627
 20
165.2684910193215
 30
0.0
 40
1.0
100
AcDbArc
 50
341.5527380390892
 51
91.36782860733037
  0
LINE
  5
25A4
330
1F
100
AcDbEntity
  8
Calque1
100
AcDbLine
 10
207.5806140939036
 20
164.9520593840147
 30
0.0
 11
207.2062942989884
 21
163.8299039121834
 31
0.0
  0
LINE
  5
25A5
330
1F
100
AcDbEntity
  8
Calque1
100
AcDbLine
 10
213.3135160747621
 20
169.1880369586711
 30
0.0
 11
217.8748372840561
 21
169.2969505860942
 31
0.0
  0
ARC
  5
25A6
330
1F
100
AcDbEntity
  8
Calque1
100
AcDbCircle
 10
213.2896452295441
 20
170.1877520094481
 30
0.0
 40
1.0
100
AcDbArc
 50
161.55273803909
 51
271.3678286073303
  0
LINE
  5
25A7
330
1F
100
AcDbEntity
  8
Calque1
100
AcDbLine
 10
212.3410299122676
 20
170.5041836447549
 30
0.0
 11
212.7153497071846
 21
171.6263391165835
 31
0.0
  0
LINE
  5
25A8
330
1F
100
AcDbEntity
  8
Calque1
100
AcDbLine
 10
213.3135160747621
 20
166.2682060700985
 30
0.0
 11
217.8748372840415
 21
166.1592924426759
 31
0.0
  0
ARC
  5
25A9
330
1F
100
AcDbEntity
  8
Calque1
100
AcDbCircle
 10
213.2896452295441
 20
165.2684910193215
 30
0.0
 40
1.0
100
AcDbArc
 50
88.63217139266962
 51
198.447261960886
  0
LINE
  5
25AA
330
1F
100
AcDbEntity
  8
Calque1
100
AcDbLine
 10
212.3410299122676
 20
164.9520593840147
 30
0.0
 11
212.7153497071864
 21
163.8299039121829
 31
0.0
  0
CIRCLE
  5
2828
330
1F
100
AcDbEntity
  8
Calque1
100
AcDbCircle
 10
566.3683339675234
 20
177.3331906788943
 30
0.0
 40
1.0
  0
CIRCLE
  5
2829
330
1F
100
AcDbEntity
  8
Calque1
100
AcDbCircle
 10
566.3683339675234
 20
177.3331906788943
 30
0.0
 40
2.2
  0
CIRCLE
  5
282A
330
1F
100
AcDbEntity
  8
Calque1
100
AcDbCircle
 10
586.3683339675234
 20
177.3331906788943
 30
0.0
 40
1.0
  0
CIRCLE
  5
282B
330
1F
100
AcDbEntity
  8
Calque1
100
AcDbCircle
 10
586.3683339675234
 20
177.3331906788943
 30
0.0
 40
2.2
  0
CIRCLE
  5
282C
330
1F
100
AcDbEntity
  8
Calque1
100
AcDbCircle
 10
566.3683339675234
 20
157.3331906788943
 30
0.0
 40
1.0
  0
CIRCLE
  5
282D
330
1F
100
AcDbEntity
  8
Calque1
100
AcDbCircle
 10
566.3683339675234
 20
157.3331906788943
 30
0.0
 40
2.2
  0
CIRCLE
  5
282E
330
1F
100
AcDbEntity
  8
Calque1
100
AcDbCircle
 10
586.3683339675234
 20
157.3331906788943
 30
0.0
 40
1.0
  0
CIRCLE
  5
282F
330
1F
100
AcDbEntity
  8
Calque1
100
AcDbCircle
 10
586.3683339675234
 20
157.3331906788943
 30
0.0
 40
2.2
  0
CIRCLE
  5
2830
330
1F
100
AcDbEntity
  8
Calque1
100
AcDbCircle
 10
561.0262515521143
 20
182.5831906788943
 30
0.0
 40
1.5
  0
CIRCLE
  5
2831
330
1F
100
AcDbEntity
  8
Calque1
100
AcDbCircle
 10
591.7104163829325
 20
182.5831906788943
 30
0.0
 40
1.5
  0
CIRCLE
  5
2832
330
1F
100
AcDbEntity
  8
Calque1
100
AcDbCircle
 10
591.7104163829325
 20
152.0831906788943
 30
0.0
 40
1.5
  0
CIRCLE
  5
2833
330
1F
100
AcDbEntity
  8
Calque1
100
AcDbCircle
 10
561.0262515521143
 20
152.0831906788943
 30
0.0
 40
1.5
  0
CIRCLE
  5
2834
330
1F
100
AcDbEntity
  8
Calque1
100
AcDbCircle
 10
561.0262515521143
 20
182.5831906788943
 30
0.0
 40
3.399999999999999
  0
CIRCLE
  5
2835
330
1F
100
AcDbEntity
  8
Calque1
100
AcDbCircle
 10
591.7104163829325
 20
182.5831906788943
 30
0.0
 40
3.399999999999999
  0
CIRCLE
  5
2836
330
1F
100
AcDbEntity
  8
Calque1
100
AcDbCircle
 10
591.7104163829325
 20
152.0831906788943
 30
0.0
 40
3.399999999999999
  0
CIRCLE
  5
2837
330
1F
100
AcDbEntity
  8
Calque1
100
AcDbCircle
 10
561.0262515521143
 20
152.0831906788943
 30
0.0
 40
3.399999999999999
  0
LINE
  5
2838
330
1F
100
AcDbEntity
  8
Calque1
100
AcDbLine
 10
576.3683339675234
 20
185.1615260830502
 30
0.0
 11
573.3137415345017
 21
185.1615260830502
 31
0.0
  0
ARC
  5
2839
330
1F
100
AcDbEntity
  8
Calque1
100
AcDbCircle
 10
573.3137415345017
 20
195.1615260830502
 30
0.0
 40
10.0
100
AcDbArc
 50
244.6114035207393
 51
270.0
  0
LINE
  5
283A
330
1F
100
AcDbEntity
  8
Calque1
100
AcDbLine
 10
569.0261881844679
 20
186.1273196281027
 30
0.0
 11
549.5122621941654
 21
195.3884538704193
 31
0.0
  0
ARC
  5
283B
330
1F
100
AcDbEntity
  8
Calque1
100
AcDbCircle
 10
547.3684855191485
 20
190.8713506429466
 30
0.0
 40
5.0
100
AcDbArc
 50
64.61140352073201
 51
143.5397166768048
  0
LINE
  5
283C
330
1F
100
AcDbEntity
  8
Calque1
100
AcDbLine
 10
541.766608233779
 20
185.1796598277234
 30
0.0
 11
551.4758591577182
 21
173.8356139636381
 31
0.0
  0
ARC
  5
283D
330
1F
100
AcDbEntity
  8
Calque1
100
AcDbCircle
 10
543.8785904757504
 20
167.3331906788954
 30
0.0
 40
9.999999999998603
100
AcDbArc
 50
319.4401251063366
 51
40.5598748936527
  0
LINE
  5
283E
330
1F
100
AcDbEntity
  8
Calque1
100
AcDbLine
 10
551.4758591577163
 20
160.8307673941504
 30
0.0
 11
541.766608233779
 21
149.4867215300652
 31
0.0
  0
ARC
  5
283F
330
1F
100
AcDbEntity
  8
Calque1
100
AcDbCircle
 10
545.5652425747638
 20
146.2355098876938
 30
0.0
 40
5.0
100
AcDbArc
 50
139.4401251063561
 51
216.4602833231952
  0
LINE
  5
2840
330
1F
100
AcDbEntity
  8
Calque1
100
AcDbLine
 10
549.5122621941654
 20
139.2779274873693
 30
0.0
 11
569.0261881844679
 21
148.5390617296858
 31
0.0
  0
ARC
  5
2841
330
1F
100
AcDbEntity
  8
Calque1
100
AcDbCircle
 10
547.3684855191485
 20
143.7950307148422
 30
0.0
 40
5.0
100
AcDbArc
 50
216.4602833231952
 51
295.388596479268
  0
ARC
  5
2842
330
1F
100
AcDbEntity
  8
Calque1
100
AcDbCircle
 10
573.3137415345017
 20
139.5048552747383
 30
0.0
 40
9.999999999999998
100
AcDbArc
 50
90.0
 51
115.3885964792606
  0
LINE
  5
2843
330
1F
100
AcDbEntity
  8
Calque1
100
AcDbLine
 10
573.3137415345017
 20
149.5048552747383
 30
0.0
 11
576.3683339675234
 21
149.5048552747383
 31
0.0
  0
LINE
  5
2844
330
1F
100
AcDbEntity
  8
Calque1
100
AcDbLine
 10
541.5438976210342
 20
191.4021985747946
 30
0.0
 11
543.3471405654189
 21
193.8426777476462
 31
0.0
  0
ARC
  5
2845
330
1F
100
AcDbEntity
  8
Calque1
100
AcDbCircle
 10
545.5652425747638
 20
188.4308714700952
 30
0.0
 40
5.0
100
AcDbArc
 50
143.5397166768048
 51
220.5598748936527
  0
LINE
  5
2846
330
1F
100
AcDbEntity
  8
Calque1
100
AcDbLine
 10
541.5438976210342
 20
143.2641827829946
 30
0.0
 11
543.3471405654189
 21
140.8237036101426
 31
0.0
  0
LINE
  5
2847
330
1F
100
AcDbEntity
  8
Calque1
100
AcDbLine
 10
576.368333967487
 20
185.1615260830502
 30
0.0
 11
579.4229264005088
 21
185.1615260830543
 31
0.0
  0
ARC
  5
2848
330
1F
100
AcDbEntity
  8
Calque1
100
AcDbCircle
 10
579.422926400496
 20
195.1615260830543
 30
0.0
 40
10.0
100
AcDbArc
 50
270.0
 51
295.3885964792743
  0
LINE
  5
2849
330
1F
100
AcDbEntity
  8
Calque1
100
AcDbLine
 10
583.7104797505425
 20
186.1273196281125
 30
0.0
 11
603.2244057408323
 21
195.3884538704554
 31
0.0
  0
ARC
  5
284A
330
1F
100
AcDbEntity
  8
Calque1
100
AcDbCircle
 10
605.3681824158546
 20
190.8713506429857
 30
0.0
 40
5.0
100
AcDbArc
 50
36.46028332323381
 51
115.3885964792743
  0
LINE
  5
284B
330
1F
100
AcDbEntity
  8
Calque1
100
AcDbLine
 10
610.9700597012314
 20
185.17965982777
 30
0.0
 11
601.2608087773086
 21
173.8356139636715
 31
0.0
  0
ARC
  5
284C
330
1F
100
AcDbEntity
  8
Calque1
100
AcDbCircle
 10
608.8580774592855
 20
167.3331906789391
 30
0.0
 40
9.999999999998603
100
AcDbArc
 50
139.4401251063666
 51
220.5598748936934
  0
LINE
  5
284D
330
1F
100
AcDbEntity
  8
Calque1
100
AcDbLine
 10
601.2608087773267
 20
160.8307673941839
 30
0.0
 11
610.9700597012805
 21
149.4867215301118
 31
0.0
  0
ARC
  5
284E
330
1F
100
AcDbEntity
  8
Calque1
100
AcDbCircle
 10
607.1714253602993
 20
146.2355098877352
 30
0.0
 40
5.0
100
AcDbArc
 50
323.5397166768897
 51
40.5598748936827
  0
LINE
  5
284F
330
1F
100
AcDbEntity
  8
Calque1
100
AcDbLine
 10
603.2244057409069
 20
139.2779274874054
 30
0.0
 11
583.7104797505916
 21
148.5390617296956
 31
0.0
  0
ARC
  5
2850
330
1F
100
AcDbEntity
  8
Calque1
100
AcDbCircle
 10
605.3681824159183
 20
143.7950307148813
 30
0.0
 40
5.0
100
AcDbArc
 50
244.611403520732
 51
323.5397166768261
  0
ARC
  5
2851
330
1F
100
AcDbEntity
  8
Calque1
100
AcDbCircle
 10
579.4229264005706
 20
139.5048552747424
 30
0.0
 40
9.999999999999998
100
AcDbArc
 50
64.6114035209562
 51
90.0
  0
LINE
  5
2852
330
1F
100
AcDbEntity
  8
Calque1
100
AcDbLine
 10
579.4229264005578
 20
149.5048552747424
 30
0.0
 11
576.3683339675361
 21
149.5048552747383
 31
0.0
  0
LINE
  5
2853
330
1F
100
AcDbEntity
  8
Calque1
100
AcDbLine
 10
611.1927703139689
 20
191.4021985748414
 30
0.0
 11
609.3895273695806
 21
193.8426777476905
 31
0.0
  0
ARC
  5
2854
330
1F
100
AcDbEntity
  8
Calque1
100
AcDbCircle
 10
607.1714253602429
 20
188.4308714701366
 30
0.0
 40
5.0
100
AcDbArc
 50
319.4401251063666
 51
36.46028332323381
  0
LINE
  5
2855
330
1F
100
AcDbEntity
  8
Calque1
100
AcDbLine
 10
611.1927703140326
 20
143.2641827830415
 30
0.0
 11
609.3895273696515
 21
140.8237036101869
 31
0.0
  0
CIRCLE
  5
2856
330
1F
100
AcDbEntity
  8
Calque1
100
AcDbCircle
 10
546.8825512586544
 20
189.1199079026979
 30
0.0
 40
1.5
  0
CIRCLE
  5
2857
330
1F
100
AcDbEntity
  8
Calque1
100
AcDbCircle
 10
605.8541166763924
 20
189.1199079026979
 30
0.0
 40
1.5
  0
CIRCLE
  5
2858
330
1F
100
AcDbEntity
  8
Calque1
100
AcDbCircle
 10
546.8825512586544
 20
145.5464734550906
 30
0.0
 40
1.5
  0
CIRCLE
  5
2859
330
1F
100
AcDbEntity
  8
Calque1
100
AcDbCircle
 10
605.8541166763924
 20
145.5464734550906
 30
0.0
 40
1.5
  0
LINE
  5
2905
330
1F
100
AcDbEntity
  8
Calque1
100
AcDbLine
 10
80.38082415328098
 20
155.3184940671925
 30
0.0
 11
82.28103860407403
 21
191.8922805934256
 31
0.0
  0
ARC
  5
2906
330
1F
100
AcDbEntity
  8
Calque1
100
AcDbCircle
 10
76.2891204110797
 20
192.2035945321702
 30
0.0
 40
6.0
100
AcDbArc
 50
357.0258353797797
 51
0.0000000001351609
  0
LINE
  5
2907
330
1F
100
AcDbEntity
  8
Calque1
100
AcDbLine
 10
82.28912041108046
 20
192.2035945321814
 30
0.0
 11
82.28912041100855
 21
204.3917551660979
 31
0.0
  0
ARC
  5
2908
330
1F
100
AcDbEntity
  8
Calque1
100
AcDbCircle
 10
61.28912041100855
 20
204.3917551660877
 30
0.0
 40
21.0
100
AcDbArc
 50
0.0000000000276835
 51
25.01726796173203
  0
LINE
  5
2909
330
1F
100
AcDbEntity
  8
Calque1
100
AcDbLine
 10
76.72606672030821
 20
220.9712892643423
 30
0.0
 11
80.31890830718859
 21
213.2724743163771
 31
0.0
  0
ARC
  5
290A
330
1F
100
AcDbEntity
  8
Calque1
100
AcDbCircle
 10
78.53842747232483
 20
221.8170720405597
 30
0.0
 40
2.0
100
AcDbArc
 50
180.0000000000277
 51
205.017267961732
  0
LINE
  5
290B
330
1F
100
AcDbEntity
  8
Calque1
100
AcDbLine
 10
76.53842747232847
 20
241.4799634231485
 30
0.0
 11
76.53842747232463
 21
221.8170720405628
 31
0.0
  0
ARC
  5
290C
330
1F
100
AcDbEntity
  8
Calque1
100
AcDbCircle
 10
80.53842747232719
 20
241.4799634231496
 30
0.0
 40
4.0
100
AcDbArc
 50
136.6495935986188
 51
180.0000000000277
  0
LINE
  5
290D
330
1F
100
AcDbEntity
  8
Calque1
100
AcDbLine
 10
84.83478216673189
 20
251.8581261478647
 30
0.0
 11
77.62975098376533
 21
244.2257968275794
 31
0.0
  0
ARC
  5
290E
330
1F
100
AcDbEntity
  8
Calque1
100
AcDbCircle
 10
86.28912041101319
 20
250.4852094456506
 30
0.0
 40
2.0
100
AcDbArc
 50
43.35040640138076
 51
136.6495935984958
  0
LINE
  5
290F
330
1F
100
AcDbEntity
  8
Calque1
100
AcDbLine
 10
87.74345865529447
 20
251.8581261478644
 30
0.0
 11
94.94848983826365
 21
244.2257968275756
 31
0.0
  0
ARC
  5
2910
330
1F
100
AcDbEntity
  8
Calque1
100
AcDbCircle
 10
92.03981334970027
 20
241.4799634231477
 30
0.0
 40
4.0
100
AcDbArc
 50
0.0000000000276835
 51
43.35040640138076
  0
LINE
  5
2911
330
1F
100
AcDbEntity
  8
Calque1
100
AcDbLine
 10
96.03981334969859
 20
241.4799634231461
 30
0.0
 11
96.03981334969581
 21
221.8170720405589
 31
0.0
  0
ARC
  5
2912
330
1F
100
AcDbEntity
  8
Calque1
100
AcDbCircle
 10
94.03981334969669
 20
221.8170720405606
 30
0.0
 40
2.0
100
AcDbArc
 50
334.9827320382931
 51
0.0000000000276835
  0
LINE
  5
2913
330
1F
100
AcDbEntity
  8
Calque1
100
AcDbLine
 10
95.85217410171374
 20
220.9712892643393
 30
0.0
 11
92.25933251482821
 21
213.2724743163771
 31
0.0
  0
ARC
  5
2914
330
1F
100
AcDbEntity
  8
Calque1
100
AcDbCircle
 10
111.2891204110088
 20
204.3917551660818
 30
0.0
 40
21.0
100
AcDbArc
 50
154.9827320382931
 51
180.0000000000277
  0
LINE
  5
2915
330
1F
100
AcDbEntity
  8
Calque1
100
AcDbLine
 10
90.28912041107947
 20
192.2035945321759
 30
0.0
 11
90.28912041100886
 21
204.3917551660717
 31
0.0
  0
ARC
  5
2916
330
1F
100
AcDbEntity
  8
Calque1
100
AcDbCircle
 10
96.28912041109982
 20
192.2035945322084
 30
0.0
 40
6.0
100
AcDbArc
 50
180.0000000001417
 51
182.9741646204991
  0
LINE
  5
2917
330
1F
100
AcDbEntity
  8
Calque1
100
AcDbLine
 10
92.19741666903599
 20
155.3184940672147
 30
0.0
 11
90.29720221810512
 21
191.8922805934409
 31
0.0
  0
LINE
  5
2918
330
1F
100
AcDbEntity
  8
Calque1
100
AcDbLine
 10
90.1530291885499
 20
128.9879187447761
 30
0.0
 11
92.19039862993358
 21
154.7961604362398
 31
0.0
  0
ARC
  5
2919
330
1F
100
AcDbEntity
  8
Calque1
100
AcDbCircle
 10
88.20280454037506
 20
155.1109514413693
 30
0.0
 40
4.0
100
AcDbArc
 50
355.4862836320278
 51
2.974164620499154
  0
ARC
  5
291A
330
1F
100
AcDbEntity
  8
Calque1
100
AcDbCircle
 10
84.37543628194333
 20
155.1109514413627
 30
0.0
 40
4.0
100
AcDbArc
 50
177.0258353797797
 51
184.5137163681584
  0
LINE
  5
291B
330
1F
100
AcDbEntity
  8
Calque1
100
AcDbLine
 10
82.42521163386676
 20
128.9879187447605
 30
0.0
 11
80.38784219238529
 21
154.7961604362171
 31
0.0
  0
ARC
  5
291C
330
1F
100
AcDbEntity
  8
Calque1
100
AcDbCircle
 10
86.412805723425
 20
129.3027097499063
 30
0.0
 40
4.0
100
AcDbArc
 50
184.5137163681584
 51
215.0924547159615
  0
LINE
  5
291D
330
1F
100
AcDbEntity
  8
Calque1
100
AcDbLine
 10
86.28912041122093
 20
122.5209834442765
 30
0.0
 11
83.13990399222273
 21
127.0031197303826
 31
0.0
  0
LINE
  5
291E
330
1F
100
AcDbEntity
  8
Calque1
100
AcDbLine
 10
86.28912041122031
 20
122.5209834442771
 30
0.0
 11
89.43833683020141
 21
127.0031197303962
 31
0.0
  0
ARC
  5
291F
330
1F
100
AcDbEntity
  8
Calque1
100
AcDbCircle
 10
86.16543509899134
 20
129.3027097499056
 30
0.0
 40
4.0
100
AcDbArc
 50
324.9075452842475
 51
355.4862836320278
  0
HATCH
  5
2AFD
330
1F
100
AcDbEntity
  8
Calque2
100
AcDbHatch
 10
0.0
 20
0.0
 30
0.0
210
0.0
220
0.0
230
1.0
  2
SOLID
 70
     1
 71
     1
 91
        2
 92
        1
 93
        8
 72
     1
 10
90.70571930208098
 20
-32.39128658224536
 11
84.55334213937566
 21
-32.39128658224377
 72
     1
 10
84.55334213937566
 20
-32.39128658224377
 11
84.55334213937566
 21
-29.99128658224521
 72
     1
 10
84.55334213937566
 20
-29.99128658224521
 11
85.20334213937713
 21
-29.99128658224521
 72
     1
 10
85.20334213937713
 20
-29.99128658224521
 11
85.20334213937713
 21
-28.89128658224536
 72
     1
 10
85.20334213937713
 20
-28.89128658224536
 11
86.30334213937748
 21
-28.89128658224593
 72
     1
 10
86.30334213937748
 20
-28.89128658224593
 11
86.30334213937841
 21
-26.39128658224542
 72
     1
 10
86.30334213937841
 20
-26.39128658224542
 11
92.42961214784736
 21
-26.39128658224536
 72
     1
 10
92.42961214784736
 20
-26.39128658224536
 11
90.70571930208098
 21
-32.39128658224536
 97
        1
330
2B1C
 92
        1
 93
        8
 72
     1
 10
73.31450974183827
 20
-32.39128658224513
 11
81.55334213937932
 21
-32.39128658224377
 72
     1
 10
81.55334213937932
 20
-32.39128658224377
 11
81.55334213937932
 21
-29.99128658224521
 72
     1
 10
81.55334213937932
 20
-29.99128658224521
 11
80.90334213937877
 21
-29.99128658224521
 72
     1
 10
80.90334213937877
 20
-29.99128658224521
 11
80.90334213937877
 21
-28.89128658224536
 72
     1
 10
80.90334213937877
 20
-28.89128658224536
 11
79.80334213937931
 21
-28.89128658224593
 72
     1
 10
79.80334213937931
 20
-28.89128658224593
 11
79.8033421393784
 21
-26.39128658224542
 72
     1
 10
79.8033421393784
 20
-26.39128658224542
 11
74.95024557400757
 21
-26.39128658224536
 72
     1
 10
74.95024557400757
 20
-26.39128658224536
 11
73.31450974183827
 21
-32.39128658224513
 97
        1
330
2B1D
 75
     1
 76
     1
 98
        1
 10
7194.639550385935
 20
-452.7764132265219
450
        0
451
        0
460
0.0
461
0.0
452
        0
462
1.0
453
        2
463
0.0
 63
     5
421
      255
463
1.0
 63
     2
421
 16776960
470
LINEAR
1001
GradientColor1ACI
1070
     5
1001
GradientColor2ACI
1070
     2
1001
ACAD
1010
0.0
1020
0.0
1030
0.0
  0
CIRCLE
  5
2AFE
330
1F
100
AcDbEntity
  8
Calque1
100
AcDbCircle
 10
83.05334213937749
 20
-15.28986611921982
 30
0.0
 40
1.5
  0
CIRCLE
  5
2AFF
330
1F
100
AcDbEntity
  8
Calque1
100
AcDbCircle
 10
83.05334213937749
 20
-15.28986611921982
 30
0.0
 40
3.25
  0
LINE
  5
2B00
102
{ACAD_REACTORS
330
2B15
102
}
330
1F
100
AcDbEntity
  8
Calque2
100
AcDbLine
 10
89.38630357243528
 20
-26.39128658224536
 30
0.0
 11
71.98246515935898
 21
-26.39128658224536
 31
0.0
  0
LINE
  5
2B01
330
1F
100
AcDbEntity
  8
Calque2
100
AcDbLine
 10
86.30334213937748
 20
-28.89128658224542
 30
0.0
 11
85.20334213937621
 21
-28.89128658224542
 31
0.0
  0
LINE
  5
2B02
102
{ACAD_REACTORS
330
2B24
102
}
330
1F
100
AcDbEntity
  8
Calque2
100
AcDbLine
 10
80.90334213937694
 20
-28.89128658224548
 30
0.0
 11
79.8033421393784
 21
-28.89128658224536
 31
0.0
  0
LINE
  5
2B03
102
{ACAD_REACTORS
330
2B24
102
}
330
1F
100
AcDbEntity
  8
Calque2
100
AcDbLine
 10
77.40481553837071
 20
-29.99128658224533
 30
0.0
 11
79.80334213937749
 21
-29.99128658224533
 31
0.0
  0
LINE
  5
2B04
102
{ACAD_REACTORS
330
2B27
330
2BBB
102
}
330
1F
100
AcDbEntity
  8
Calque2
100
AcDbLine
 10
80.90334213937694
 20
-29.99128658224539
 30
0.0
 11
81.55334213937749
 21
-29.99128658224539
 31
0.0
  0
LINE
  5
2B05
330
1F
100
AcDbEntity
  8
Calque2
100
AcDbLine
 10
84.55334213937566
 20
-29.99128658224527
 30
0.0
 11
85.20334213937621
 21
-29.99128658224533
 31
0.0
  0
LINE
  5
2B06
330
1F
100
AcDbEntity
  8
Calque2
100
AcDbLine
 10
86.30334213937748
 20
-29.99128658224539
 30
0.0
 11
87.55433060902579
 21
-29.52128658224536
 31
0.0
  0
LINE
  5
2B07
330
1F
100
AcDbEntity
  8
Calque2
  6
ACAD_ISO03W100
 48
0.01
100
AcDbLine
 10
74.49718547879456
 20
-15.28986611921982
 30
0.0
 11
91.90102389187087
 21
-15.28986611921982
 31
0.0
  0
LINE
  5
2B08
330
1F
100
AcDbEntity
  8
Calque2
  6
ACAD_ISO03W100
 48
0.01
100
AcDbLine
 10
83.05334213937749
 20
-7.734162768183978
 30
0.0
 11
83.05334213937749
 21
-34.35620727987816
 31
0.0
  0
LINE
  5
2B09
102
{ACAD_REACTORS
330
2B18
102
}
330
1F
100
AcDbEntity
  8
Calque2
100
AcDbLine
 10
80.90334213937694
 20
-29.99128658224533
 30
0.0
 11
80.90334213937694
 21
-28.89128658224542
 31
0.0
  0
LINE
  5
2B0A
102
{ACAD_REACTORS
330
2B18
102
}
330
1F
100
AcDbEntity
  8
Calque2
100
AcDbLine
 10
85.20334213937713
 20
-29.99128658224533
 30
0.0
 11
85.20334213937713
 21
-28.89128658224542
 31
0.0
  0
MTEXT
  5
2B0B
102
{ACAD_XDICTIONARY
360
2B0C
102
}
330
1F
100
AcDbEntity
  8
0
  6
JIS_09_08
100
AcDbMText
 10
38.66002392137671
 20
-36.94210135304138
 30
0.0
 40
2.0
 41
90.64253054363508
 46
0.0
 71
     1
 72
     5
  1
\pi43.02127;{\fISOCPEUR|b0|i0|c0|p34;hole\P\pi36.92127;for pressnuts}
 73
     1
 44
1.0
1001
ACAD
1000
ACAD_MTEXT_COLUMN_INFO_BEGIN
1070
    75
1070
     2
1070
    79
1070
     0
1070
    76
1070
     1
1070
    78
1070
     0
1070
    48
1040
90.64253054363508
1070
    49
1040
12.5
1070
    50
1070
     1
1040
0.0
1000
ACAD_MTEXT_COLUMN_INFO_END
  0
LINE
  5
2B0D
102
{ACAD_REACTORS
330
2B15
330
2B1B
102
}
330
1F
100
AcDbEntity
  8
Calque2
100
AcDbLine
 10
86.30334213937748
 20
-28.89128658224542
 30
0.0
 11
86.30334213937841
 21
-26.39128658224542
 31
0.0
  0
LINE
  5
2B0E
102
{ACAD_REACTORS
330
2B15
102
}
330
1F
100
AcDbEntity
  8
Calque2
100
AcDbLine
 10
79.80334213937931
 20
-28.89128658224536
 30
0.0
 11
79.8033421393784
 21
-26.39128658224536
 31
0.0
  0
LINE
  5
2B0F
330
1F
100
AcDbEntity
  8
Calque2
100
AcDbLine
 10
84.55334213937566
 20
-32.39128658224536
 30
0.0
 11
84.55334213937659
 21
-29.99128658224533
 31
0.0
  0
LINE
  5
2B10
102
{ACAD_REACTORS
330
2B27
102
}
330
1F
100
AcDbEntity
  8
Calque2
100
AcDbLine
 10
81.55334213937749
 20
-32.39128658224536
 30
0.0
 11
81.55334213937749
 21
-29.99128658224533
 31
0.0
  0
LINE
  5
2B11
330
1F
100
AcDbEntity
  8
Calque2
100
AcDbLine
 10
89.38630357243528
 20
-32.39128658224536
 30
0.0
 11
71.98246515935898
 21
-32.39128658224536
 31
0.0
  0
CIRCLE
  5
2B12
330
1F
100
AcDbEntity
  8
Calque1
100
AcDbCircle
 10
83.05334213937749
 20
-15.28986611921982
 30
0.0
 40
2.149999999999999
  0
DIMENSION
  5
2B13
102
{ACAD_XDICTIONARY
360
2B14
102
}
102
{ACAD_REACTORS
330
2B15
102
}
330
1F
100
AcDbEntity
  8
0
100
AcDbDimension
280
     0
  2
*D4
 10
79.8033421393784
 20
-24.09590798997988
 30
0.0
 11
83.0533421393784
 21
-23.29495301044373
 31
0.0
 70
    32
 71
     5
 42
6.5
 73
     0
 74
     0
 75
     0
  3
ISO-25
100
AcDbAlignedDimension
 13
86.30334213937841
 23
-26.39128658224536
 33
0.0
 14
79.8033421393784
 24
-26.39128658224877
 34
0.0
 50
180.0
100
AcDbRotatedDimension
1001
ACAD
1000
DSTYLE
1002
{
1070
   147
1040
0.2
1070
    41
1040
0.5
1070
    42
1040
1.0
1070
    44
1040
1.0
1070
   140
1040
1.0
1070
   173
1070
     1
1070
   343
1005
1899
1070
   344
1005
1899
1002
}
  0
DIMENSION
  5
2B16
102
{ACAD_XDICTIONARY
360
2B17
102
}
102
{ACAD_REACTORS
330
2B18
102
}
330
1F
100
AcDbEntity
  8
0
100
AcDbDimension
280
     0
  2
*D5
 10
80.90334213937694
 20
-35.08318900360928
 30
0.0
 11
83.05334213937703
 21
-34.28223402407313
 31
0.0
 70
    32
 71
     5
 42
4.300000000000181
 73
     0
 74
     0
 75
     0
  3
ISO-25
100
AcDbAlignedDimension
 13
85.20334213937713
 23
-29.99128658224533
 33
0.0
 14
80.90334213937694
 24
-29.99128658224533
 34
0.0
 50
180.0
100
AcDbRotatedDimension
1001
ACAD
1000
DSTYLE
1002
{
1070
    41
1040
0.5
1070
    42
1040
1.0
1070
    44
1040
1.0
1070
   140
1040
1.0
1070
   147
1040
0.2
1070
   173
1070
     1
1070
   343
1005
1899
1070
   344
1005
1899
1002
}
  0
DIMENSION
  5
2B19
102
{ACAD_XDICTIONARY
360
2B1A
102
}
102
{ACAD_REACTORS
330
2B1B
102
}
330
1F
100
AcDbEntity
  8
0
100
AcDbDimension
280
     0
  2
*D6
 10
78.14238036622834
 20
-28.89128658224543
 30
0.0
 11
77.34142538669217
 21
-27.64128658224542
 31
0.0
 70
    32
 71
     5
 42
2.500000000000056
 73
     0
 74
     0
 75
     0
  3
ISO-25
100
AcDbAlignedDimension
 13
86.30334213937841
 23
-26.39128658224536
 33
0.0
 14
86.30334213937748
 24
-28.89128658224542
 34
0.0
 50
270.0
100
AcDbRotatedDimension
1001
ACAD
1000
DSTYLE
1002
{
1070
    41
1040
0.5
1070
    42
1040
1.0
1070
    44
1040
1.0
1070
   140
1040
1.0
1070
   147
1040
0.2
1070
   173
1070
     1
1070
   343
1005
1899
1070
   344
1005
1899
1002
}
  0
LWPOLYLINE
  5
2B1C
102
{ACAD_REACTORS
330
2AFD
102
}
330
1F
100
AcDbEntity
  8
Calque1
100
AcDbPolyline
 90
        8
 70
     1
 43
0.0
 10
90.70571930208098
 20
-32.39128658224536
 10
84.55334213937566
 20
-32.39128658224377
 10
84.55334213937566
 20
-29.99128658224521
 10
85.20334213937713
 20
-29.99128658224521
 10
85.20334213937713
 20
-28.89128658224536
 10
86.30334213937748
 20
-28.89128658224593
 10
86.30334213937841
 20
-26.39128658224542
 10
92.42961214784736
 20
-26.39128658224536
  0
LWPOLYLINE
  5
2B1D
102
{ACAD_REACTORS
330
2AFD
330
2B27
330
2BBB
102
}
330
1F
100
AcDbEntity
  8
Calque1
100
AcDbPolyline
 90
        8
 70
     1
 43
0.0
 10
73.31450974183827
 20
-32.39128658224513
 10
81.55334213937932
 20
-32.39128658224377
 10
81.55334213937932
 20
-29.99128658224521
 10
80.90334213937877
 20
-29.99128658224521
 10
80.90334213937877
 20
-28.89128658224536
 10
79.80334213937931
 20
-28.89128658224593
 10
79.8033421393784
 20
-26.39128658224542
 10
74.95024557400757
 20
-26.39128658224536
  0
MTEXT
  5
2B1E
102
{ACAD_XDICTIONARY
360
2B1F
102
}
330
1F
100
AcDbEntity
  8
0
  6
JIS_09_08
100
AcDbMText
 10
17.04991913704725
 20
-13.18217572230384
 30
0.0
 40
2.0
 41
90.64253054363508
 46
0.0
 71
     1
 72
     5
  1
\pi43.02127;{\fISOCPEUR|b0|i0|c0|p34;plan}
 73
     1
 44
1.0
1001
ACAD
1000
ACAD_MTEXT_COLUMN_INFO_BEGIN
1070
    75
1070
     2
1070
    79
1070
     0
1070
    76
1070
     1
1070
    78
1070
     0
1070
    48
1040
90.64253054363508
1070
    49
1040
12.5
1070
    50
1070
     1
1040
0.0
1000
ACAD_MTEXT_COLUMN_INFO_END
  0
MTEXT
  5
2B20
102
{ACAD_XDICTIONARY
360
2B21
102
}
330
1F
100
AcDbEntity
  8
0
  6
JIS_09_08
100
AcDbMText
 10
17.04991913704725
 20
-23.28955839194674
 30
0.0
 40
2.0
 41
90.64253054363508
 46
0.0
 71
     1
 72
     5
  1
\pi41.22127;{\fISOCPEUR|b0|i0|c0|p34;section}
 73
     1
 44
1.0
1001
ACAD
1000
ACAD_MTEXT_COLUMN_INFO_BEGIN
1070
    75
1070
     2
1070
    79
1070
     0
1070
    76
1070
     1
1070
    78
1070
     0
1070
    48
1040
90.64253054363508
1070
    49
1040
12.5
1070
    50
1070
     1
1040
0.0
1000
ACAD_MTEXT_COLUMN_INFO_END
  0
DIMENSION
  5
2B22
102
{ACAD_XDICTIONARY
360
2B23
102
}
102
{ACAD_REACTORS
330
2B24
102
}
330
1F
100
AcDbEntity
  8
0
100
AcDbDimension
280
     0
  2
*D2
 10
78.14238036622831
 20
-29.99128658224534
 30
0.0
 11
77.34142538669214
 21
-31.95799872412803
 31
0.0
 70
    32
 71
     5
 42
1.099999999999965
 73
     0
 74
     0
 75
     0
  3
ISO-25
100
AcDbAlignedDimension
 13
79.8033421393784
 23
-28.89128658224536
 33
0.0
 14
79.8033421393784
 24
-29.99128658224533
 34
0.0
 50
270.0
100
AcDbRotatedDimension
1001
ACAD
1000
DSTYLE
1002
{
1070
    41
1040
0.5
1070
    42
1040
1.0
1070
    44
1040
1.0
1070
   140
1040
1.0
1070
   147
1040
0.2
1070
   173
1070
     1
1070
   343
1005
1899
1070
   344
1005
1899
1002
}
  0
DIMENSION
  5
2B25
102
{ACAD_XDICTIONARY
360
2B26
102
}
102
{ACAD_REACTORS
330
2B27
102
}
330
1F
100
AcDbEntity
  8
0
100
AcDbDimension
280
     0
  2
*D3
 10
89.56959690840816
 20
-32.39128658224537
 30
0.0
 11
88.76864192887198
 21
-31.1912865822454
 31
0.0
 70
    32
 71
     5
 42
2.399999999999977
 73
     0
 74
     0
 75
     0
  3
ISO-25
100
AcDbAlignedDimension
 13
81.55334213937932
 23
-29.99128658224539
 33
0.0
 14
81.55334213937749
 24
-32.39128658224536
 34
0.0
 50
270.0
100
AcDbRotatedDimension
1001
ACAD
1000
DSTYLE
1002
{
1070
    41
1040
0.5
1070
    42
1040
1.0
1070
    44
1040
1.0
1070
   140
1040
1.0
1070
   147
1040
0.2
1070
   173
1070
     1
1070
   343
1005
1899
1070
   344
1005
1899
1002
}
  0
DIMENSION
  5
2BA0
102
{ACAD_XDICTIONARY
360
2BAF
102
}
102
{ACAD_REACTORS
330
2BBB
102
}
330
1F
100
AcDbEntity
  8
0
100
AcDbDimension
280
     0
  2
*D7
 10
89.56959690840818
 20
-29.9912865822454
 30
0.0
 11
88.76864192887202
 21
-28.19128658224543
 31
0.0
 70
    32
 71
     5
 42
3.599999999999965
 73
     0
 74
     0
 75
     0
  3
ISO-25
100
AcDbAlignedDimension
 13
79.8033421393784
 23
-26.39128658224542
 33
0.0
 14
80.90334213937694
 24
-29.99128658224539
 34
0.0
 50
90.0
100
AcDbRotatedDimension
1001
ACAD
1000
DSTYLE
1002
{
1070
    41
1040
0.5
1070
    42
1040
1.0
1070
    44
1040
1.0
1070
   140
1040
1.0
1070
   147
1040
0.2
1070
   173
1070
     1
1070
   343
1005
1899
1070
   344
1005
1899
1002
}
  0
MTEXT
  5
2BC6
102
{ACAD_XDICTIONARY
360
2C0F
102
}
330
1F
100
AcDbEntity
  8
0
100
AcDbMText
 10
19.23288911934105
 20
30.39738000425268
 30
0.0
 40
5.0
 41
126.9168601109813
 46
0.0
 71
     1
 72
     5
  1
\pi36.45843;{\fISOCPEUR|b0|i0|c0|p34;pressnuts depth : \P\pi43.95843;∅6.5 = 2.5mm\P\pi45.20843;∅4.3= 3.6mm}
 73
     1
 44
1.0
1001
ACAD
1000
ACAD_MTEXT_COLUMN_INFO_BEGIN
1070
    75
1070
     2
1070
    79
1070
     0
1070
    76
1070
     1
1070
    78
1070
     0
1070
    48
1040
126.9168601109813
1070
    49
1040
12.5
1070
    50
1070
     1
1040
0.0
1000
ACAD_MTEXT_COLUMN_INFO_END
  0
MTEXT
  5
2EC5
102
{ACAD_XDICTIONARY
360
2EC6
102
}
330
1F
100
AcDbEntity
  8
0
  6
JIS_09_08
100
AcDbMText
 10
581.0847519529061
 20
79.23756333951621
 30
0.0
 40
10.0
 41
327.756144
 46
0.0
 71
     1
 72
     5
  1
\pi140.37807;{\fISOCPEUR|b0|i0|c0|p34;pocket :\P\pi128.37807;depht 1.2mm }
 73
     1
 44
1.0
1001
ACAD
1000
ACAD_MTEXT_COLUMN_INFO_BEGIN
1070
    75
1070
     2
1070
    79
1070
     0
1070
    76
1070
     1
1070
    78
1070
     0
1070
    48
1040
327.756144
1070
    49
1040
12.5
1070
    50
1070
     1
1040
0.0
1000
ACAD_MTEXT_COLUMN_INFO_END
  0
LINE
  5
2EC7
330
1F
100
AcDbEntity
  8
0
100
AcDbLine
 10
757.3968642281942
 20
131.4436826868884
 30
0.0
 11
779.9624711885672
 21
163.8004100331484
 31
0.0
  0
LINE
  5
2EC8
330
1F
100
AcDbEntity
  8
0
100
AcDbLine
 10
779.9624711885672
 20
163.8004100331484
 30
0.0
 11
824.5844801246349
 21
163.8004100331484
 31
0.0
  0
MTEXT
  5
2EC9
102
{ACAD_XDICTIONARY
360
2ECA
102
}
330
1F
100
AcDbEntity
  8
0
  6
JIS_09_08
100
AcDbMText
 10
674.7532911757871
 20
167.2841159046926
 30
0.0
 40
5.0
 41
327.756144
 46
0.0
 71
     1
 72
     5
  1
\pi154.37807;{\fISOCPEUR|b0|i0|c0|p34;pocket \P\pi146.12807;depht 1.2mm }
 73
     1
 44
1.0
1001
ACAD
1000
ACAD_MTEXT_COLUMN_INFO_BEGIN
1070
    75
1070
     2
1070
    79
1070
     0
1070
    76
1070
     1
1070
    78
1070
     0
1070
    48
1040
327.756144
1070
    49
1040
12.5
1070
    50
1070
     1
1040
0.0
1000
ACAD_MTEXT_COLUMN_INFO_END
  0
LINE
  5
2ECB
330
1F
100
AcDbEntity
  8
Calque1
100
AcDbLine
 10
85.56195128887228
 20
248.986538870029
 30
0.0
 11
79.98820904591977
 21
243.0822429323264
 31
0.0
  0
LINE
  5
2ECC
330
1F
100
AcDbEntity
  8
Calque1
100
AcDbLine
 10
87.01628953315346
 20
248.9865388700291
 30
0.0
 11
92.59003177610827
 21
243.0822429323259
 31
0.0
  0
ARC
  5
2ECD
330
1F
100
AcDbEntity
  8
Calque1
100
AcDbCircle
 10
80.7153781680604
 20
242.395784581219
 30
0.0
 40
1.0
100
AcDbArc
 50
136.6495935985337
 51
243.264708774698
  0
ARC
  5
2ECE
330
1F
100
AcDbEntity
  8
Calque1
100
AcDbCircle
 10
86.28912041101292
 20
248.3000805189215
 30
0.0
 40
1.0
100
AcDbArc
 50
43.35040640147495
 51
136.6495935985337
  0
ARC
  5
2ECF
330
1F
100
AcDbEntity
  8
Calque1
100
AcDbCircle
 10
91.86286265396772
 20
242.3957845812183
 30
0.0
 40
1.0
100
AcDbArc
 50
296.7352912252803
 51
43.350406401475
  0
LINE
  5
33EB
330
1F
100
AcDbEntity
  8
0
100
AcDbLine
 10
727.0300285097928
 20
198.362905704741
 30
0.0
 11
707.5633288244098
 21
214.4483890453869
 31
0.0
  0
LINE
  5
33EC
330
1F
100
AcDbEntity
  8
0
100
AcDbLine
 10
707.5633288244098
 20
214.4483890453869
 30
0.0
 11
698.091442886217
 21
214.4483890453869
 31
0.0
  0
MTEXT
  5
33ED
102
{ACAD_XDICTIONARY
360
33EE
102
}
330
1F
100
AcDbEntity
  8
0
  6
JIS_09_08
100
AcDbMText
 10
851.266994250729
 20
217.9320949169311
 30
0.0
 40
5.0
 41
327.756144
 46
0.0
 71
     3
 72
     5
  1
{\fISOCPEUR|b0|i0|c0|p34;pocket \Pdepht 1.2mm }
 73
     1
 44
1.0
1001
ACAD
1000
ACAD_MTEXT_COLUMN_INFO_BEGIN
1070
    75
1070
     2
1070
    79
1070
     0
1070
    76
1070
     1
1070
    78
1070
     0
1070
    48
1040
327.756144
1070
    49
1040
12.5
1070
    50
1070
     1
1040
0.0
1000
ACAD_MTEXT_COLUMN_INFO_END
  0
ARC
  5
378E
330
1F
100
AcDbEntity
  8
Calque1
100
AcDbCircle
 10
319.5107714991791
 20
111.1294521412381
 30
0.0
 40
0.9999999999993178
100
AcDbArc
 50
90.00000000010421
 51
139.5607484236923
  0
LINE
  5
378F
330
1F
100
AcDbEntity
  8
Calque1
100
AcDbLine
 10
318.74967737732
 20
111.7780935966452
 30
0.0
 11
311.5421643923564
 21
103.3210396721053
 31
0.0
  0
ARC
  5
3790
330
1F
100
AcDbEntity
  8
Calque1
100
AcDbCircle
 10
312.3032585142137
 20
102.6723982166984
 30
0.0
 40
1.0
100
AcDbArc
 50
139.5607484235952
 51
180.0
  0
LINE
  5
3791
330
1F
100
AcDbEntity
  8
Calque1
100
AcDbLine
 10
317.5107714991755
 20
123.3580979426772
 30
0.0
 11
317.5107714991755
 21
114.9034798953969
 31
0.0
  0
ARC
  5
3792
330
1F
100
AcDbEntity
  8
Calque1
100
AcDbCircle
 10
316.5107714991755
 20
114.9034798953955
 30
0.0
 40
1.0
100
AcDbArc
 50
319.5607484237165
 51
0.0000000000781653
  0
LINE
  5
3793
330
1F
100
AcDbEntity
  8
Calque1
100
AcDbLine
 10
317.2718656210345
 20
114.2548384399894
 30
0.0
 11
314.2718656210345
 21
110.7347390899728
 31
0.0
  0
ARC
  5
3794
330
1F
100
AcDbEntity
  8
Calque1
100
AcDbCircle
 10
313.5107714991755
 20
111.3833805453801
 30
0.0
 40
1.000000000000657
100
AcDbArc
 50
179.9999999999935
 51
319.5607484236865
  0
LINE
  5
3795
330
1F
100
AcDbEntity
  8
Calque1
100
AcDbLine
 10
312.5107714991773
 20
111.3833805453802
 30
0.0
 11
312.5107714991773
 21
126.658410609698
 31
0.0
  0
LINE
  5
3796
330
1F
100
AcDbEntity
  8
Calque1
100
AcDbLine
 10
314.2507432929706
 20
127.3310485096044
 30
0.0
 11
317.2507432929706
 21
124.0307358425835
 31
0.0
  0
ARC
  5
3797
330
1F
100
AcDbEntity
  8
Calque1
100
AcDbCircle
 10
313.5107714991773
 20
126.658410609698
 30
0.0
 40
1.0
100
AcDbArc
 50
42.27098710995224
 51
180.0
  0
ARC
  5
3798
330
1F
100
AcDbEntity
  8
Calque1
100
AcDbCircle
 10
316.5107714991755
 20
123.3580979426797
 30
0.0
 40
0.999999999999723
100
AcDbArc
 50
359.9999999998567
 51
42.27098710977937
  0
LINE
  5
3799
330
1F
100
AcDbEntity
  8
Calque1
100
AcDbLine
 10
301.5068643573395
 20
171.5642499378582
 30
0.0
 11
301.5068643573395
 21
172.5937761622333
 31
0.0
  0
ARC
  5
379A
330
1F
100
AcDbEntity
  8
Calque1
100
AcDbCircle
 10
296.5068643573395
 20
172.5937761622333
 30
0.0
 40
5.0
100
AcDbArc
 50
0.0
 51
50.56555205648881
  0
LINE
  5
379B
330
1F
100
AcDbEntity
  8
Calque1
100
AcDbLine
 10
284.3616232736658
 20
195.1937981478631
 30
0.0
 11
286.1520780597329
 21
197.6169700387818
 31
0.0
  0
ARC
  5
379C
330
1F
100
AcDbEntity
  8
Calque1
100
AcDbCircle
 10
290.1734230134625
 20
194.6456429340826
 30
0.0
 40
5.0
100
AcDbArc
 50
90.0
 51
143.5397166768069
  0
ARC
  5
379D
330
1F
100
AcDbEntity
  8
Calque1
100
AcDbCircle
 10
319.5107714991828
 20
237.5231626365727
 30
0.0
 40
0.9999999999992843
100
AcDbArc
 50
220.6524411945501
 51
319.3475588054591
  0
LINE
  5
379E
330
1F
100
AcDbEntity
  8
Calque1
100
AcDbLine
 10
318.7520961448936
 20
236.8716937525933
 30
0.0
 11
311.9958610615013
 21
244.7397426672784
 31
0.0
  0
ARC
  5
379F
330
1F
100
AcDbEntity
  8
Calque1
100
AcDbCircle
 10
312.7545364157904
 20
245.3912115512588
 30
0.0
 40
1.0
100
AcDbArc
 50
180.0
 51
220.6524411945801
  0
LINE
  5
37A0
330
1F
100
AcDbEntity
  8
Calque1
100
AcDbLine
 10
312.3660393792725
 20
249.0182440881732
 30
0.0
 11
316.1303576702194
 21
250.6053367611403
 31
0.0
  0
ARC
  5
37A1
330
1F
100
AcDbEntity
  8
Calque1
100
AcDbCircle
 10
312.7545364157904
 20
248.0967941152416
 30
0.0
 40
1.0
100
AcDbArc
 50
112.8610129017372
 51
180.0
  0
ARC
  5
37A2
330
1F
100
AcDbEntity
  8
Calque1
100
AcDbCircle
 10
316.5188547067373
 20
249.6838867882103
 30
0.0
 40
0.9999999999979284
100
AcDbArc
 50
90.0
 51
112.8610129017372
  0
LINE
  5
37A3
330
1F
100
AcDbEntity
  8
Calque1
100
AcDbLine
 10
316.5188547067373
 20
250.6838867882081
 30
0.0
 11
319.5107714991718
 21
250.6838867882079
 31
0.0
  0
LINE
  5
37A4
330
1F
100
AcDbEntity
  8
Calque1
100
AcDbLine
 10
311.5107714991773
 20
225.4283323816942
 30
0.0
 11
311.5107714991773
 21
236.9930796461323
 31
0.0
  0
ARC
  5
37A5
330
1F
100
AcDbEntity
  8
Calque1
100
AcDbCircle
 10
310.5107714991773
 20
225.4283323816942
 30
0.0
 40
1.0
100
AcDbArc
 50
319.3475588054395
 51
0.0
  0
ARC
  5
37A6
330
1F
100
AcDbEntity
  8
Calque1
100
AcDbCircle
 10
312.5107714991773
 20
236.9930796461326
 30
0.0
 40
1.0
100
AcDbArc
 50
40.65244119456971
 51
180.0000000000195
  0
LINE
  5
37A7
330
1F
100
AcDbEntity
  8
Calque1
100
AcDbLine
 10
313.2694468534664
 20
237.6445485301127
 30
0.0
 11
317.2694468534646
 21
232.9863039204581
 31
0.0
  0
ARC
  5
37A8
330
1F
100
AcDbEntity
  8
Calque1
100
AcDbCircle
 10
316.5107714991755
 20
232.334835036478
 30
0.0
 40
1.000000000000024
100
AcDbArc
 50
0.0000000000195413
 51
40.65244119456971
  0
LINE
  5
37A9
330
1F
100
AcDbEntity
  8
Calque1
100
AcDbLine
 10
317.5107714991755
 20
232.3348350364784
 30
0.0
 11
317.5107714991755
 21
221.6503635724275
 31
0.0
  0
ARC
  5
37AA
330
1F
100
AcDbEntity
  8
Calque1
100
AcDbCircle
 10
316.5107714991755
 20
221.6503635724276
 30
0.0
 40
1.0
100
AcDbArc
 50
319.3475588054302
 51
359.9999999999935
  0
LINE
  5
37AB
330
1F
100
AcDbEntity
  8
Calque1
100
AcDbLine
 10
317.2694468534646
 20
220.9988946884475
 30
0.0
 11
310.93100670887
 21
213.6173935291557
 31
0.0
  0
ARC
  5
37AC
330
1F
100
AcDbEntity
  8
Calque1
100
AcDbCircle
 10
310.1723313545808
 20
214.2688624131357
 30
0.0
 40
1.0
100
AcDbArc
 50
180.0
 51
319.3475588054349
  0
LINE
  5
37AD
330
1F
100
AcDbEntity
  8
Calque1
100
AcDbLine
 10
301.5068643573377
 20
170.5347237134831
 30
0.0
 11
301.5068643573395
 21
171.5642499378582
 31
0.0
  0
CIRCLE
  5
37AE
330
1F
100
AcDbEntity
  8
Calque1
100
AcDbCircle
 10
304.1686890837682
 20
198.1835938281902
 30
0.0
 40
1.5
  0
CIRCLE
  5
37AF
330
1F
100
AcDbEntity
  8
Calque1
100
AcDbCircle
 10
308.0107714991773
 20
102.2797484450957
 30
0.0
 40
1.5
  0
CIRCLE
  5
37B0
330
1F
100
AcDbEntity
  8
Calque1
100
AcDbCircle
 10
309.5107714991773
 20
134.5188794830728
 30
0.0
 40
1.1
  0
CIRCLE
  5
37B1
330
1F
100
AcDbEntity
  8
Calque1
100
AcDbCircle
 10
309.5107714991773
 20
114.5188794830728
 30
0.0
 40
1.1
  0
CIRCLE
  5
37B2
330
1F
100
AcDbEntity
  8
Calque1
100
AcDbCircle
 10
304.1686890837663
 20
144.9449060475276
 30
0.0
 40
1.5
  0
CIRCLE
  5
37B3
330
1F
100
AcDbEntity
  8
Calque1
100
AcDbCircle
 10
290.0249887902701
 20
193.3509671616614
 30
0.0
 40
2.149999999999999
  0
CIRCLE
  5
37B4
330
1F
100
AcDbEntity
  8
Calque1
100
AcDbCircle
 10
290.0249887902864
 20
149.7775327140339
 30
0.0
 40
2.149999999999999
  0
CIRCLE
  5
37B5
330
1F
100
AcDbEntity
  8
Calque1
100
AcDbCircle
 10
334.8528539145864
 20
198.1835938281902
 30
0.0
 40
1.5
  0
CIRCLE
  5
37B6
330
1F
100
AcDbEntity
  8
Calque1
100
AcDbCircle
 10
331.0107714991773
 20
102.2797484450957
 30
0.0
 40
1.5
  0
CIRCLE
  5
37B7
330
1F
100
AcDbEntity
  8
Calque1
100
AcDbCircle
 10
329.5107714991773
 20
134.5188794830728
 30
0.0
 40
1.1
  0
CIRCLE
  5
37B8
330
1F
100
AcDbEntity
  8
Calque1
100
AcDbCircle
 10
329.5107714991773
 20
114.5188794830728
 30
0.0
 40
1.1
  0
CIRCLE
  5
37B9
330
1F
100
AcDbEntity
  8
Calque1
100
AcDbCircle
 10
334.8528539145882
 20
144.9449060475276
 30
0.0
 40
1.5
  0
LINE
  5
37BA
330
1F
100
AcDbEntity
  8
Calque1
100
AcDbLine
 10
310.7502898804214
 20
208.294151844423
 30
0.0
 11
315.7520961448863
 21
214.119061111913
 31
0.0
  0
ARC
  5
37BB
330
1F
100
AcDbEntity
  8
Calque1
100
AcDbCircle
 10
311.5089652347105
 20
207.6426829604429
 30
0.0
 40
1.0
100
AcDbArc
 50
139.3475588054245
 51
198.9037505680981
  0
LINE
  5
37BC
330
1F
100
AcDbEntity
  8
Calque1
100
AcDbLine
 10
310.5629010814664
 20
207.3187036124159
 30
0.0
 11
315.5861770529646
 21
195.1269258447171
 31
0.0
  0
LINE
  5
37BD
330
1F
100
AcDbEntity
  8
Calque1
100
AcDbLine
 10
313.1671172197184
 20
134.4698861069116
 30
0.0
 11
318.7707997053804
 21
128.3052513437784
 31
0.0
  0
ARC
  5
37BE
330
1F
100
AcDbEntity
  8
Calque1
100
AcDbCircle
 10
313.9070890135117
 20
135.1425240068182
 30
0.0
 40
1.0
100
AcDbArc
 50
157.7263542699714
 51
222.2709871099418
  0
LINE
  5
37BF
330
1F
100
AcDbEntity
  8
Calque1
100
AcDbLine
 10
312.9817048550176
 20
135.5215545586334
 30
0.0
 11
318.585387340685
 21
149.202665425895
 31
0.0
  0
LINE
  5
37C0
330
1F
100
AcDbEntity
  8
Calque1
100
AcDbLine
 10
325.8544257786362
 20
134.4698861069107
 30
0.0
 11
320.250743292967
 21
128.3052513437779
 31
0.0
  0
ARC
  5
37C1
330
1F
100
AcDbEntity
  8
Calque1
100
AcDbCircle
 10
319.5107714991755
 20
128.9778892436846
 30
0.0
 40
1.0
100
AcDbArc
 50
222.2709871099418
 51
317.729012890034
  0
LINE
  5
37C2
330
1F
100
AcDbEntity
  8
Calque1
100
AcDbLine
 10
326.039838143337
 20
135.5215545586327
 30
0.0
 11
320.4361556576696
 21
149.2026654258951
 31
0.0
  0
ARC
  5
37C3
330
1F
100
AcDbEntity
  8
Calque1
100
AcDbCircle
 10
325.1144539848429
 20
135.1425240068174
 30
0.0
 40
1.0
100
AcDbArc
 50
317.729012890034
 51
22.27364573002855
  0
ARC
  5
37C4
330
1F
100
AcDbEntity
  8
Calque1
100
AcDbCircle
 10
319.5107714991773
 20
148.8236348740799
 30
0.0
 40
1.0
100
AcDbArc
 50
22.27364573002855
 51
157.7263542699714
  0
LINE
  5
37C5
330
1F
100
AcDbEntity
  8
Calque1
100
AcDbLine
 10
317.5107714991755
 20
213.4675922279328
 30
0.0
 11
317.5107714991755
 21
195.5078787421147
 31
0.0
  0
ARC
  5
37C6
330
1F
100
AcDbEntity
  8
Calque1
100
AcDbCircle
 10
316.5107714991755
 20
195.5078787421147
 30
0.0
 40
1.0
100
AcDbArc
 50
202.392719808764
 51
0.0
  0
ARC
  5
37C7
330
1F
100
AcDbEntity
  8
Calque1
100
AcDbCircle
 10
316.5107714991755
 20
213.4675922279328
 30
0.0
 40
1.0
100
AcDbArc
 50
0.0
 51
139.3475588054303
  0
CIRCLE
  5
37C8
330
1F
100
AcDbEntity
  8
Calque1
100
AcDbCircle
 10
306.7607714991773
 20
137.2688794830728
 30
0.0
 40
0.85
  0
CIRCLE
  5
37C9
330
1F
100
AcDbEntity
  8
Calque1
100
AcDbCircle
 10
332.2607714991773
 20
137.2688794830728
 30
0.0
 40
0.85
  0
CIRCLE
  5
37CA
330
1F
100
AcDbEntity
  8
Calque1
100
AcDbCircle
 10
332.2607714991773
 20
111.7688794830728
 30
0.0
 40
0.85
  0
CIRCLE
  5
37CB
330
1F
100
AcDbEntity
  8
Calque1
100
AcDbCircle
 10
306.7607714991773
 20
111.7688794830728
 30
0.0
 40
0.85
  0
ARC
  5
37D6
330
1F
100
AcDbEntity
  8
Calque1
100
AcDbCircle
 10
306.6090278456086
 20
246.0519144076672
 30
0.0
 40
0.8
100
AcDbArc
 50
89.66698479694862
 51
262.9450940251618
  0
LINE
  5
37D7
330
1F
100
AcDbEntity
  8
Calque1
100
AcDbLine
 10
306.5107714991918
 20
245.2579712797362
 30
0.0
 11
306.5107714991918
 21
242.345629666211
 31
0.0
  0
ARC
  5
37D8
330
1F
100
AcDbEntity
  8
Calque1
100
AcDbCircle
 10
306.6107714993159
 20
241.5519042729072
 30
0.0
 40
0.8
100
AcDbArc
 50
97.18075587106115
 51
270.3330151807478
  0
LINE
  5
37D9
330
1F
100
AcDbEntity
  8
Calque1
100
AcDbLine
 10
306.6136775886353
 20
240.7519177855895
 30
0.0
 11
309.5278654464983
 21
240.7519177855895
 31
0.0
  0
ARC
  5
37DA
330
1F
100
AcDbEntity
  8
Calque1
100
AcDbCircle
 10
309.5307714992086
 20
241.5519042730005
 30
0.0
 40
0.8
100
AcDbArc
 50
269.6669890142989
 51
82.81924413902308
  0
LINE
  5
37DB
330
1F
100
AcDbEntity
  8
Calque1
100
AcDbLine
 10
309.6307714991926
 20
242.345629666322
 30
0.0
 11
309.6307714991926
 21
245.2584106401385
 31
0.0
  0
ARC
  5
37DC
330
1F
100
AcDbEntity
  8
Calque1
100
AcDbCircle
 10
309.5290278455014
 20
246.0519144075735
 30
0.0
 40
0.8
100
AcDbArc
 50
277.3066405936485
 51
90.33301097361125
  0
LINE
  5
37DD
330
1F
100
AcDbEntity
  8
Calque1
100
AcDbLine
 10
309.5278654466056
 20
246.8519008949832
 30
0.0
 11
306.6136775888317
 21
246.8519008949832
 31
0.0
  0
ARC
  5
37DE
330
1F
100
AcDbEntity
  8
Calque1
100
AcDbCircle
 10
306.6090278456086
 20
232.4678736602939
 30
0.0
 40
0.8
100
AcDbArc
 50
89.66698479694862
 51
262.9450940251618
  0
LINE
  5
37DF
330
1F
100
AcDbEntity
  8
Calque1
100
AcDbLine
 10
306.5107714991918
 20
231.6739305323629
 30
0.0
 11
306.5107714991918
 21
228.7615889188377
 31
0.0
  0
ARC
  5
37E0
330
1F
100
AcDbEntity
  8
Calque1
100
AcDbCircle
 10
306.6107714993159
 20
227.9678635255339
 30
0.0
 40
0.8
100
AcDbArc
 50
97.18075587106115
 51
270.3330151807478
  0
LINE
  5
37E1
330
1F
100
AcDbEntity
  8
Calque1
100
AcDbLine
 10
306.6136775886353
 20
227.1678770382162
 30
0.0
 11
309.5278654464983
 21
227.1678770382162
 31
0.0
  0
ARC
  5
37E2
330
1F
100
AcDbEntity
  8
Calque1
100
AcDbCircle
 10
309.5307714992086
 20
227.9678635256272
 30
0.0
 40
0.8
100
AcDbArc
 50
269.6669890142989
 51
82.81924413902308
  0
LINE
  5
37E3
330
1F
100
AcDbEntity
  8
Calque1
100
AcDbLine
 10
309.6307714991926
 20
228.7615889189486
 30
0.0
 11
309.6307714991926
 21
231.6743698927652
 31
0.0
  0
ARC
  5
37E4
330
1F
100
AcDbEntity
  8
Calque1
100
AcDbCircle
 10
309.5290278455014
 20
232.4678736602001
 30
0.0
 40
0.8
100
AcDbArc
 50
277.3066405936485
 51
90.33301097361125
  0
LINE
  5
37E5
330
1F
100
AcDbEntity
  8
Calque1
100
AcDbLine
 10
309.5278654466056
 20
233.2678601476098
 30
0.0
 11
306.6136775888317
 21
233.2678601476098
 31
0.0
  0
ARC
  5
37E6
330
1F
100
AcDbEntity
  8
Calque1
100
AcDbCircle
 10
306.6090278457268
 20
253.1369263845297
 30
0.0
 40
0.8
100
AcDbArc
 50
204.1454925030123
 51
270.3330151805394
  0
LINE
  5
37E7
330
1F
100
AcDbEntity
  8
Calque1
100
AcDbLine
 10
306.6136775886353
 20
252.336939897212
 30
0.0
 11
309.5078654464978
 21
252.336939897212
 31
0.0
  0
ARC
  5
37E8
330
1F
100
AcDbEntity
  8
Calque1
100
AcDbCircle
 10
309.5090278456173
 20
253.1369263846228
 30
0.0
 40
0.8
100
AcDbArc
 50
269.6669890142989
 51
81.2467430169241
  0
LINE
  5
37E9
330
1F
100
AcDbEntity
  8
Calque1
100
AcDbLine
 10
309.6307714986506
 20
254.5195818003416
 30
0.0
 11
313.5110413232596
 21
255.6185473309756
 31
0.0
  0
LINE
  5
37EA
330
1F
100
AcDbEntity
  8
Calque1
100
AcDbLine
 10
314.0560425223375
 20
255.6942361053666
 30
0.0
 11
319.5107714991773
 21
255.6942361053667
 31
0.0
  0
ARC
  5
37EB
330
1F
100
AcDbEntity
  8
Calque1
100
AcDbCircle
 10
314.0560425223375
 20
253.6942361053666
 30
0.0
 40
2.0
100
AcDbArc
 50
90.0
 51
105.813121431323
  0
LINE
  5
37EC
330
1F
100
AcDbEntity
  8
Calque1
100
AcDbLine
 10
305.8790201036391
 20
252.8096822913932
 30
0.0
 11
305.1945485404176
 21
252.5815289574401
 31
0.0
  0
ARC
  5
37ED
330
1F
100
AcDbEntity
  8
Calque1
100
AcDbCircle
 10
305.5107714991773
 20
251.6328440569844
 30
0.0
 40
1.0
100
AcDbArc
 50
108.4346584886125
 51
180.0
  0
CIRCLE
  5
37EE
330
1F
100
AcDbEntity
  8
Calque1
100
AcDbCircle
 10
348.9965542080845
 20
193.3509671616614
 30
0.0
 40
2.149999999999999
  0
CIRCLE
  5
37EF
330
1F
100
AcDbEntity
  8
Calque1
100
AcDbCircle
 10
348.9965542080681
 20
149.7775327140339
 30
0.0
 40
2.149999999999999
  0
LWPOLYLINE
  5
37F6
330
1F
100
AcDbEntity
  8
Calque1
100
AcDbPolyline
 90
       10
 70
     0
 43
0.0
 10
299.101930262017
 20
222.8322529124206
 10
299.101930262017
 20
221.2271651622419
 42
0.1989123673796348
 10
299.6877166996455
 20
219.8129515998691
 10
303.9249850615506
 20
215.5756832379653
 42
-0.1989123673797353
 10
304.5107714991773
 20
214.1614696755915
 10
304.5107714991773
 20
206.969711119608
 42
-0.1989123673796318
 10
303.9249850615506
 20
205.5554975572351
 10
299.4795965324647
 20
201.1101090281499
 42
-0.1989123673796884
 10
295.9440626265314
 20
199.6456429340826
 10
290.1734230134625
 20
199.6456429340826
  0
CIRCLE
  5
37F7
330
1F
100
AcDbEntity
  8
Calque1
100
AcDbCircle
 10
303.0283130911521
 20
222.8322529124217
 30
0.0
 40
1.5
  0
LWPOLYLINE
  5
37F8
330
1F
100
AcDbEntity
  8
Calque1
100
AcDbPolyline
 90
        6
 70
     0
 43
0.0
 10
299.101930262017
 20
222.8322529124206
 10
299.101930262017
 20
224.4373406625992
 42
-0.1989123673796348
 10
299.6877166996455
 20
225.8515542249721
 10
303.9249850615506
 20
230.0888225868758
 42
0.1989123673796762
 10
304.5107714991773
 20
231.5030361492492
 10
304.5107714991773
 20
251.6328440569844
  0
CIRCLE
  5
37F9
330
1F
100
AcDbEntity
  8
Calque1
100
AcDbCircle
 10
335.9932299072789
 20
222.8322529124217
 30
0.0
 40
1.5
  0
ARC
  5
37FA
330
1F
100
AcDbEntity
  8
Calque1
100
AcDbCircle
 10
333.5107714991773
 20
251.6328440569844
 30
0.0
 40
1.0
100
AcDbArc
 50
0.0
 51
71.56534151128089
  0
LWPOLYLINE
  5
37FB
330
1F
100
AcDbEntity
  8
Calque1
100
AcDbPolyline
 90
        6
 70
     0
 43
0.0
 10
339.9196127363375
 20
222.8322529124206
 10
339.9196127363375
 20
224.4373406625992
 42
0.1989123673796348
 10
339.333826298709
 20
225.8515542249721
 10
335.096557936804
 20
230.0888225868758
 42
-0.1989123673796762
 10
334.5107714991773
 20
231.5030361492492
 10
334.5107714991773
 20
251.6328440569844
  0
LINE
  5
37FC
330
1F
100
AcDbEntity
  8
Calque1
100
AcDbLine
 10
299.6828393027772
 20
176.4555352362754
 30
0.0
 11
285.2069932819577
 21
188.3607119691221
 31
0.0
  0
ARC
  5
37FD
330
1F
100
AcDbEntity
  8
Calque1
100
AcDbCircle
 10
288.3829682273954
 20
192.2224710431641
 30
0.0
 40
5.0
100
AcDbArc
 50
143.5397166768069
 51
230.5655520564888
  0
ARC
  5
37FE
330
1F
100
AcDbEntity
  8
Calque1
100
AcDbCircle
 10
296.5068643573395
 20
170.5347237134831
 30
0.0
 40
5.0
100
AcDbArc
 50
309.4344479435112
 51
0.0
  0
LINE
  5
37FF
330
1F
100
AcDbEntity
  8
Calque1
100
AcDbLine
 10
299.6828393027772
 20
166.672964639441
 30
0.0
 11
285.2069932819577
 21
154.7677879065937
 31
0.0
  0
ARC
  5
3800
330
1F
100
AcDbEntity
  8
Calque1
100
AcDbCircle
 10
342.5146786410078
 20
172.5937761621961
 30
0.0
 40
5.0
100
AcDbArc
 50
129.4344479433667
 51
179.9999999999088
  0
LINE
  5
3801
330
1F
100
AcDbEntity
  8
Calque1
100
AcDbLine
 10
337.5146786410151
 20
171.5642499378582
 30
0.0
 11
337.5146786410151
 21
172.5937761622333
 31
0.0
  0
LINE
  5
3802
330
1F
100
AcDbEntity
  8
Calque1
100
AcDbLine
 10
337.5146786410169
 20
170.5347237134831
 30
0.0
 11
337.5146786410151
 21
171.5642499378582
 31
0.0
  0
ARC
  5
3803
330
1F
100
AcDbEntity
  8
Calque1
100
AcDbCircle
 10
342.5146786410151
 20
170.5347237134831
 30
0.0
 40
5.0
100
AcDbArc
 50
180.0
 51
230.5655520563917
  0
CIRCLE
  5
3804
330
1F
100
AcDbEntity
  8
Calque1
100
AcDbCircle
 10
308.971493074876
 20
179.3516056623959
 30
0.0
 40
1.5
  0
CIRCLE
  5
3805
330
1F
100
AcDbEntity
  8
Calque1
100
AcDbCircle
 10
330.0500499233658
 20
179.3516056623959
 30
0.0
 40
1.5
  0
CIRCLE
  5
3806
330
1F
100
AcDbEntity
  8
Calque1
100
AcDbCircle
 10
308.971493074876
 20
163.7768942132641
 30
0.0
 40
1.5
  0
CIRCLE
  5
3807
330
1F
100
AcDbEntity
  8
Calque1
100
AcDbCircle
 10
330.0500499233658
 20
163.7768942132641
 30
0.0
 40
1.5
  0
LINE
  5
3808
330
1F
100
AcDbEntity
  8
Calque1
100
AcDbLine
 10
309.1723313545808
 20
221.9642126791225
 30
0.0
 11
309.1723313545808
 21
214.2688624131357
 31
0.0
  0
ARC
  5
3809
330
1F
100
AcDbEntity
  8
Calque1
100
AcDbCircle
 10
310.1723313545808
 20
221.9642126791225
 30
0.0
 40
1.0
100
AcDbArc
 50
139.3475588054395
 51
180.0
  0
LINE
  5
380A
330
1F
100
AcDbEntity
  8
Calque1
100
AcDbLine
 10
309.4136560002917
 20
222.6156815631023
 30
0.0
 11
311.2694468534664
 21
224.7768634977144
 31
0.0
  0
LINE
  5
380B
330
1F
100
AcDbEntity
  8
Calque1
100
AcDbLine
 10
327.5107714991845
 20
225.4283323816852
 30
0.0
 11
327.5107714991973
 21
236.9930796461233
 31
0.0
  0
ARC
  5
380C
330
1F
100
AcDbEntity
  8
Calque1
100
AcDbCircle
 10
328.5107714991846
 20
225.4283323816841
 30
0.0
 40
1.0
100
AcDbArc
 50
179.9999999999348
 51
220.6524411945455
  0
ARC
  5
380D
330
1F
100
AcDbEntity
  8
Calque1
100
AcDbCircle
 10
326.5107714991973
 20
236.9930796461248
 30
0.0
 40
1.0
100
AcDbArc
 50
359.9999999999153
 51
139.3475588054094
  0
LINE
  5
380E
330
1F
100
AcDbEntity
  8
Calque1
100
AcDbLine
 10
325.7520961449099
 20
237.6445485301057
 30
0.0
 11
321.7520961449063
 21
232.9863039204556
 31
0.0
  0
ARC
  5
380F
330
1F
100
AcDbEntity
  8
Calque1
100
AcDbCircle
 10
322.5107714991955
 20
232.3348350364746
 30
0.0
 40
1.000000000000024
100
AcDbArc
 50
139.3475588054094
 51
179.9999999999153
  0
LINE
  5
3810
330
1F
100
AcDbEntity
  8
Calque1
100
AcDbLine
 10
321.5107714991955
 20
232.3348350364761
 30
0.0
 11
321.5107714991827
 21
221.6503635724253
 31
0.0
  0
ARC
  5
3811
330
1F
100
AcDbEntity
  8
Calque1
100
AcDbCircle
 10
322.5107714991827
 20
221.6503635724242
 30
0.0
 40
1.0
100
AcDbArc
 50
179.9999999999413
 51
220.6524411945455
  0
LINE
  5
3812
330
1F
100
AcDbEntity
  8
Calque1
100
AcDbLine
 10
321.7520961448936
 20
220.998894688445
 30
0.0
 11
328.0905362894791
 21
213.6173935291461
 31
0.0
  0
ARC
  5
3813
330
1F
100
AcDbEntity
  8
Calque1
100
AcDbCircle
 10
328.8492116437701
 20
214.2688624131253
 30
0.0
 40
1.0
100
AcDbArc
 50
220.6524411945455
 51
359.9999999999349
  0
LINE
  5
3814
330
1F
100
AcDbEntity
  8
Calque1
100
AcDbLine
 10
328.2712531179222
 20
208.2941518444132
 30
0.0
 11
323.2694468534628
 21
214.1190611119088
 31
0.0
  0
ARC
  5
3815
330
1F
100
AcDbEntity
  8
Calque1
100
AcDbCircle
 10
327.5125777636313
 20
207.6426829604339
 30
0.0
 40
1.0
100
AcDbArc
 50
341.0962494318003
 51
40.65244119455011
  0
LINE
  5
3816
330
1F
100
AcDbEntity
  8
Calque1
100
AcDbLine
 10
328.4586419168754
 20
207.3187036124059
 30
0.0
 11
323.4353659453645
 21
195.1269258447126
 31
0.0
  0
LINE
  5
3817
330
1F
100
AcDbEntity
  8
Calque1
100
AcDbLine
 10
321.5107714991737
 20
213.4675922279305
 30
0.0
 11
321.5107714991536
 21
195.5078787421124
 31
0.0
  0
ARC
  5
3818
330
1F
100
AcDbEntity
  8
Calque1
100
AcDbCircle
 10
322.5107714991537
 20
195.5078787421113
 30
0.0
 40
1.0
100
AcDbArc
 50
179.9999999999348
 51
337.6072801911512
  0
ARC
  5
3819
330
1F
100
AcDbEntity
  8
Calque1
100
AcDbCircle
 10
322.5107714991736
 20
213.4675922279293
 30
0.0
 40
1.0
100
AcDbArc
 50
40.65244119454551
 51
179.9999999999348
  0
LINE
  5
381A
330
1F
100
AcDbEntity
  8
Calque1
100
AcDbLine
 10
329.8492116437774
 20
221.9642126791109
 30
0.0
 11
329.8492116437701
 21
214.2688624131241
 31
0.0
  0
ARC
  5
381B
330
1F
100
AcDbEntity
  8
Calque1
100
AcDbCircle
 10
328.8492116437774
 20
221.9642126791121
 30
0.0
 40
1.0
100
AcDbArc
 50
359.9999999999349
 51
40.65244119454091
  0
LINE
  5
381C
330
1F
100
AcDbEntity
  8
Calque1
100
AcDbLine
 10
329.6078869980684
 20
222.615681563091
 30
0.0
 11
327.7520961448954
 21
224.7768634977052
 31
0.0
  0
LINE
  5
381D
330
1F
100
AcDbEntity
  8
Calque1
100
AcDbLine
 10
311.4361556576714
 20
142.3014123940938
 30
0.0
 11
315.814833280363
 21
152.9917350812377
 31
0.0
  0
ARC
  5
381E
330
1F
100
AcDbEntity
  8
Calque1
100
AcDbCircle
 10
310.5107714991773
 20
142.6804429459093
 30
0.0
 40
1.0
100
AcDbArc
 50
180.0
 51
337.7263542699962
  0
ARC
  5
381F
330
1F
100
AcDbEntity
  8
Calque1
100
AcDbCircle
 10
314.8894491218689
 20
153.370765633053
 30
0.0
 40
1.0
100
AcDbArc
 50
337.7263542699962
 51
135.7452819748006
  0
LINE
  5
3820
330
1F
100
AcDbEntity
  8
Calque1
100
AcDbLine
 10
309.7945270177898
 20
149.5745172119239
 30
0.0
 11
314.1732046404795
 21
154.0686150744664
 31
0.0
  0
ARC
  5
3821
330
1F
100
AcDbEntity
  8
Calque1
100
AcDbCircle
 10
310.5107714991773
 20
148.8766677705112
 30
0.0
 40
1.0
100
AcDbArc
 50
135.7452819746739
 51
180.0
  0
LINE
  5
3822
330
1F
100
AcDbEntity
  8
Calque1
100
AcDbLine
 10
309.5107714991773
 20
148.8766677705112
 30
0.0
 11
309.5107714991773
 21
142.6804429459093
 31
0.0
  0
LINE
  5
3823
330
1F
100
AcDbEntity
  8
Calque1
100
AcDbLine
 10
327.5853873407159
 20
142.3014123941116
 30
0.0
 11
323.2067097180006
 21
152.9917350812459
 31
0.0
  0
ARC
  5
3824
330
1F
100
AcDbEntity
  8
Calque1
100
AcDbCircle
 10
328.5107714992082
 20
142.6804429459291
 30
0.0
 40
1.0
100
AcDbArc
 50
202.2736457301277
 51
0.0000000001237617
  0
ARC
  5
3825
330
1F
100
AcDbEntity
  8
Calque1
100
AcDbCircle
 10
324.1320938764929
 20
153.3707656330631
 30
0.0
 40
1.0
100
AcDbArc
 50
44.25471802533645
 51
202.2736457301277
  0
LINE
  5
3826
330
1F
100
AcDbEntity
  8
Calque1
100
AcDbLine
 10
329.2270159805812
 20
149.5745172119452
 30
0.0
 11
324.8483383578805
 21
154.0686150744781
 31
0.0
  0
ARC
  5
3827
330
1F
100
AcDbEntity
  8
Calque1
100
AcDbCircle
 10
328.5107714991955
 20
148.8766677705309
 30
0.0
 40
1.0
100
AcDbArc
 50
0.0000000001237617
 51
44.25471802536409
  0
LINE
  5
3828
330
1F
100
AcDbEntity
  8
Calque1
100
AcDbLine
 10
329.5107714991955
 20
148.8766677705332
 30
0.0
 11
329.5107714992082
 21
142.6804429459314
 31
0.0
  0
LINE
  5
3829
330
1F
100
AcDbEntity
  8
Calque1
100
AcDbLine
 10
321.5107714991791
 20
123.3580979426788
 30
0.0
 11
321.5107714991864
 21
114.9034798953985
 31
0.0
  0
ARC
  5
382A
330
1F
100
AcDbEntity
  8
Calque1
100
AcDbCircle
 10
322.5107714991864
 20
114.9034798953979
 30
0.0
 40
1.0
100
AcDbArc
 50
179.9999999999674
 51
220.4392515763031
  0
LINE
  5
382B
330
1F
100
AcDbEntity
  8
Calque1
100
AcDbLine
 10
321.7496773773273
 20
114.2548384399911
 30
0.0
 11
324.7496773773292
 21
110.7347390899768
 31
0.0
  0
ARC
  5
382C
330
1F
100
AcDbEntity
  8
Calque1
100
AcDbCircle
 10
325.5107714991882
 20
111.3833805453847
 30
0.0
 40
1.000000000000657
100
AcDbArc
 50
220.4392515763181
 51
0.0000000000521102
  0
LINE
  5
382D
330
1F
100
AcDbEntity
  8
Calque1
100
AcDbLine
 10
326.5107714991864
 20
111.3833805453855
 30
0.0
 11
326.5107714991736
 21
126.6584106097023
 31
0.0
  0
LINE
  5
382E
330
1F
100
AcDbEntity
  8
Calque1
100
AcDbLine
 10
324.7707997053804
 20
127.3310485096071
 30
0.0
 11
321.770799705384
 21
124.0307358425854
 31
0.0
  0
ARC
  5
382F
330
1F
100
AcDbEntity
  8
Calque1
100
AcDbCircle
 10
325.5107714991737
 20
126.6584106097013
 30
0.0
 40
1.0
100
AcDbArc
 50
0.0000000000521102
 51
137.7290128900765
  0
ARC
  5
3830
330
1F
100
AcDbEntity
  8
Calque1
100
AcDbCircle
 10
322.5107714991791
 20
123.3580979426821
 30
0.0
 40
0.999999999999723
100
AcDbArc
 50
137.7290128902298
 51
180.0000000001889
  0
LINE
  5
3831
330
1F
100
AcDbEntity
  8
Calque1
100
AcDbLine
 10
328.7795387300848
 20
200.8270874816048
 30
0.0
 11
324.4008611073696
 21
190.1367647944705
 31
0.0
  0
ARC
  5
3832
330
1F
100
AcDbEntity
  8
Calque1
100
AcDbCircle
 10
329.7049228885772
 20
200.4480569297873
 30
0.0
 40
1.0
100
AcDbArc
 50
359.9999999998697
 51
157.7263542698722
  0
ARC
  5
3833
330
1F
100
AcDbEntity
  8
Calque1
100
AcDbCircle
 10
325.3262452658619
 20
189.7577342426533
 30
0.0
 40
1.0
100
AcDbArc
 50
157.7263542698722
 51
315.7452819746635
  0
LINE
  5
3834
330
1F
100
AcDbEntity
  8
Calque1
100
AcDbLine
 10
330.4211673699501
 20
193.5539826637712
 30
0.0
 11
326.0424897472494
 21
189.0598848012383
 31
0.0
  0
ARC
  5
3835
330
1F
100
AcDbEntity
  8
Calque1
100
AcDbCircle
 10
329.7049228885644
 20
194.2518321051855
 30
0.0
 40
1.0
100
AcDbArc
 50
315.7452819746359
 51
359.9999999998697
  0
LINE
  5
3836
330
1F
100
AcDbEntity
  8
Calque1
100
AcDbLine
 10
330.7049228885644
 20
194.2518321051832
 30
0.0
 11
330.7049228885771
 21
200.448056929785
 31
0.0
  0
LINE
  5
3837
330
1F
100
AcDbEntity
  8
Calque1
100
AcDbLine
 10
310.2420042682697
 20
200.8270874816048
 30
0.0
 11
314.620681890985
 21
190.1367647944705
 31
0.0
  0
ARC
  5
3838
330
1F
100
AcDbEntity
  8
Calque1
100
AcDbCircle
 10
309.3166201097774
 20
200.4480569297873
 30
0.0
 40
1.0
100
AcDbArc
 50
22.27364573010898
 51
180.0000000001302
  0
ARC
  5
3839
330
1F
100
AcDbEntity
  8
Calque1
100
AcDbCircle
 10
313.6952977324927
 20
189.7577342426533
 30
0.0
 40
1.0
100
AcDbArc
 50
224.2547180253364
 51
22.27364573010898
  0
LINE
  5
383A
330
1F
100
AcDbEntity
  8
Calque1
100
AcDbLine
 10
308.6003756284044
 20
193.5539826637712
 30
0.0
 11
312.9790532511051
 21
189.0598848012383
 31
0.0
  0
ARC
  5
383B
330
1F
100
AcDbEntity
  8
Calque1
100
AcDbCircle
 10
309.3166201097901
 20
194.2518321051855
 30
0.0
 40
1.0
100
AcDbArc
 50
180.0000000001302
 51
224.2547180253502
  0
LINE
  5
383C
330
1F
100
AcDbEntity
  8
Calque1
100
AcDbLine
 10
308.3166201097902
 20
194.2518321051832
 30
0.0
 11
308.3166201097774
 21
200.448056929785
 31
0.0
  0
LINE
  5
383D
330
1F
100
AcDbEntity
  8
Calque1
100
AcDbLine
 10
311.7545364157904
 20
245.3912115512588
 30
0.0
 11
311.7545364157904
 21
248.0967941152416
 31
0.0
  0
LINE
  5
383E
330
1F
100
AcDbEntity
  8
Calque1
100
AcDbLine
 10
320.2694468535046
 20
236.8716937525962
 30
0.0
 11
327.0256819368642
 21
244.7397426673083
 31
0.0
  0
ARC
  5
383F
330
1F
100
AcDbEntity
  8
Calque1
100
AcDbCircle
 10
326.2670065825732
 20
245.3912115512858
 30
0.0
 40
1.0
100
AcDbArc
 50
319.3475588057122
 51
0.0000000002279822
  0
LINE
  5
3840
330
1F
100
AcDbEntity
  8
Calque1
100
AcDbLine
 10
326.6555036190766
 20
249.0182440882017
 30
0.0
 11
322.8911853281224
 21
250.6053367611537
 31
0.0
  0
ARC
  5
3841
330
1F
100
AcDbEntity
  8
Calque1
100
AcDbCircle
 10
326.2670065825623
 20
248.0967941152685
 30
0.0
 40
1.0
100
AcDbArc
 50
0.0000000002279822
 51
67.13898709849631
  0
ARC
  5
3842
330
1F
100
AcDbEntity
  8
Calque1
100
AcDbCircle
 10
322.5026882916081
 20
249.6838867882222
 30
0.0
 40
0.9999999999979284
100
AcDbArc
 50
67.13898709849631
 51
90.00000000020843
  0
LINE
  5
3843
330
1F
100
AcDbEntity
  8
Calque1
100
AcDbLine
 10
322.5026882916045
 20
250.6838867882201
 30
0.0
 11
319.51077149917
 21
250.6838867882079
 31
0.0
  0
LINE
  5
3844
330
1F
100
AcDbEntity
  8
Calque1
100
AcDbLine
 10
327.2670065825732
 20
245.3912115512898
 30
0.0
 11
327.2670065825623
 21
248.0967941152725
 31
0.0
  0
LINE
  5
3845
330
1F
100
AcDbEntity
  8
Calque1
100
AcDbLine
 10
284.3616232736658
 20
147.9347017278533
 30
0.0
 11
286.1520780597329
 21
145.5115298369346
 31
0.0
  0
ARC
  5
3846
330
1F
100
AcDbEntity
  8
Calque1
100
AcDbCircle
 10
290.1734230134625
 20
148.4828569416338
 30
0.0
 40
5.0
100
AcDbArc
 50
216.460283323193
 51
270.0
  0
ARC
  5
3847
330
1F
100
AcDbEntity
  8
Calque1
100
AcDbCircle
 10
288.3829682273954
 20
150.9060288325523
 30
0.0
 40
5.0
100
AcDbArc
 50
129.4344479435112
 51
216.460283323193
  0
ARC
  5
3848
330
1F
100
AcDbEntity
  8
Calque1
100
AcDbCircle
 10
319.510771499221
 20
111.1294521412387
 30
0.0
 40
0.9999999999987494
100
AcDbArc
 50
40.43925157645444
 51
90.00000000010421
  0
LINE
  5
3849
330
1F
100
AcDbEntity
  8
Calque1
100
AcDbLine
 10
354.6599197246596
 20
195.1937981478911
 30
0.0
 11
352.8694649385907
 21
197.6169700388083
 31
0.0
  0
ARC
  5
384A
330
1F
100
AcDbEntity
  8
Calque1
100
AcDbCircle
 10
348.8481199848648
 20
194.6456429341059
 30
0.0
 40
5.0
100
AcDbArc
 50
36.4602833232256
 51
90.0
  0
LWPOLYLINE
  5
384B
330
1F
100
AcDbEntity
  8
Calque1
100
AcDbPolyline
 90
       10
 70
     0
 43
0.0
 10
339.9196127362866
 20
222.8322529124369
 10
339.9196127362884
 20
221.2271651622582
 42
-0.1989123673796348
 10
339.3338262986617
 20
219.8129515998847
 10
335.0965579367585
 20
215.5756832379777
 42
0.1989123673797353
 10
334.5107714991336
 20
214.1614696756035
 10
334.5107714991391
 20
206.96971111962
 42
0.1989123673796318
 10
335.0965579367676
 20
205.5554975572475
 10
339.5419464658571
 20
201.1101090281658
 42
0.1989123673796884
 10
343.0774803717905
 20
199.6456429341014
 10
348.8481199848593
 20
199.6456429341059
  0
LINE
  5
384C
330
1F
100
AcDbEntity
  8
Calque1
100
AcDbLine
 10
339.3387036955646
 20
176.4555352362912
 30
0.0
 11
353.8145497163732
 21
188.3607119691494
 31
0.0
  0
ARC
  5
384D
330
1F
100
AcDbEntity
  8
Calque1
100
AcDbCircle
 10
350.6385747709337
 20
192.2224710431889
 30
0.0
 40
5.0
100
AcDbArc
 50
309.4344479436165
 51
36.4602833232256
  0
LINE
  5
384E
330
1F
100
AcDbEntity
  8
Calque1
100
AcDbLine
 10
339.3387036955719
 20
166.6729646394568
 30
0.0
 11
353.8145497164005
 21
154.767787906621
 31
0.0
  0
LINE
  5
384F
330
1F
100
AcDbEntity
  8
Calque1
100
AcDbLine
 10
354.6599197246978
 20
147.9347017278812
 30
0.0
 11
352.8694649386325
 21
145.5115298369611
 31
0.0
  0
ARC
  5
3850
330
1F
100
AcDbEntity
  8
Calque1
100
AcDbCircle
 10
348.8481199849011
 20
148.4828569416571
 30
0.0
 40
5.0
100
AcDbArc
 50
270.0
 51
323.5397166768115
  0
ARC
  5
3851
330
1F
100
AcDbEntity
  8
Calque1
100
AcDbCircle
 10
350.6385747709665
 20
150.9060288325771
 30
0.0
 40
5.0
100
AcDbArc
 50
323.5397166768115
 51
50.56555205639978
  0
LINE
  5
3852
330
1F
100
AcDbEntity
  8
Calque1
100
AcDbLine
 10
315.1581805809929
 20
97.94323842661448
 30
0.0
 11
314.0986756148777
 21
97.94323842661448
 31
0.0
  0
ARC
  5
3853
330
1F
100
AcDbEntity
  8
Calque1
100
AcDbCircle
 10
314.0986756148777
 20
99.94323842661447
 30
0.0
 40
2.0
100
AcDbArc
 50
257.8595339881376
 51
270.0
  0
LINE
  5
3854
330
1F
100
AcDbEntity
  8
Calque1
100
AcDbLine
 10
309.3714281040302
 20
98.86865837724588
 30
0.0
 11
306.5107714991336
 21
98.86865837724815
 31
0.0
  0
ARC
  5
3855
330
1F
100
AcDbEntity
  8
Calque1
100
AcDbCircle
 10
309.3714281040284
 20
96.86865837724589
 30
0.0
 40
2.0
100
AcDbArc
 50
77.85953398813759
 51
90.0
  0
ARC
  5
3856
330
1F
100
AcDbEntity
  8
Calque1
100
AcDbCircle
 10
306.5107714991336
 20
100.8686583772489
 30
0.0
 40
2.000000000000795
100
AcDbArc
 50
179.9999999999739
 51
270.0
  0
LINE
  5
3857
330
1F
100
AcDbEntity
  8
Calque1
100
AcDbLine
 10
304.5107714991336
 20
100.8686583772497
 30
0.0
 11
304.5107714991609
 21
133.9435563816557
 31
0.0
  0
ARC
  5
3858
330
1F
100
AcDbEntity
  8
Calque1
100
AcDbCircle
 10
302.5107714991609
 20
133.9435563816564
 30
0.0
 40
2.0
100
AcDbArc
 50
359.9999999999805
 51
44.99999999999078
  0
LINE
  5
3859
330
1F
100
AcDbEntity
  8
Calque1
100
AcDbLine
 10
303.9249850615342
 20
135.3577699440293
 30
0.0
 11
297.2643641579871
 21
142.0183908475842
 31
0.0
  0
ARC
  5
385A
330
1F
100
AcDbEntity
  8
Calque1
100
AcDbCircle
 10
293.7288302520519
 20
138.4828569416551
 30
0.0
 40
4.999999999999156
100
AcDbArc
 50
44.99999999997236
 51
90.0
  0
LINE
  5
385B
330
1F
100
AcDbEntity
  8
Calque1
100
AcDbLine
 10
293.7288302520556
 20
143.4828569416543
 30
0.0
 11
290.1734230134534
 21
143.4828569416571
 31
0.0
  0
LINE
  5
385C
330
1F
100
AcDbEntity
  8
Calque1
100
AcDbLine
 10
319.5107714991773
 20
101.4909442994937
 30
0.0
 11
319.1050067404122
 21
101.4909442994937
 31
0.0
  0
LINE
  5
385D
330
1F
100
AcDbEntity
  8
Calque1
100
AcDbLine
 10
319.5107714991773
 20
103.9909442994938
 30
0.0
 11
317.9508835692377
 21
103.9909442994938
 31
0.0
  0
ARC
  5
385E
330
1F
100
AcDbEntity
  8
Calque1
100
AcDbCircle
 10
319.1050067404122
 20
100.4909442994937
 30
0.0
 40
1.0
100
AcDbArc
 50
90.0
 51
139.560748423571
  0
LINE
  5
385F
330
1F
100
AcDbEntity
  8
Calque1
100
AcDbLine
 10
318.3439126185549
 20
101.1395857549018
 30
0.0
 11
315.9192747028501
 21
98.29459697120661
 31
0.0
  0
LINE
  5
3860
330
1F
100
AcDbEntity
  8
Calque1
100
AcDbLine
 10
317.1897894473805
 20
103.6395857549014
 30
0.0
 11
314.8045248510207
 21
100.8407963031508
 31
0.0
  0
ARC
  5
3861
330
1F
100
AcDbEntity
  8
Calque1
100
AcDbCircle
 10
317.9508835692377
 20
102.9909442994938
 30
0.0
 40
1.0
100
AcDbArc
 50
90.0
 51
139.5607484235652
  0
ARC
  5
3862
330
1F
100
AcDbEntity
  8
Calque1
100
AcDbCircle
 10
314.0434307291635
 20
101.4894377585589
 30
0.0
 40
1.0
100
AcDbArc
 50
257.8595339881376
 51
319.5607484235652
  0
ARC
  5
3863
330
1F
100
AcDbEntity
  8
Calque1
100
AcDbCircle
 10
315.1581805809929
 20
98.94323842661448
 30
0.0
 40
1.0
100
AcDbArc
 50
270.0
 51
319.5607484235698
  0
LINE
  5
3864
330
1F
100
AcDbEntity
  8
Calque1
100
AcDbLine
 10
313.6780574453114
 20
97.98796853336932
 30
0.0
 11
309.7920462735947
 21
98.82392827049137
 31
0.0
  0
LINE
  5
3865
330
1F
100
AcDbEntity
  8
Calque1
100
AcDbLine
 10
313.8331216443803
 20
100.5118028119362
 30
0.0
 11
312.0929494294305
 21
100.8861491128281
 31
0.0
  0
ARC
  5
3866
330
1F
100
AcDbEntity
  8
Calque1
100
AcDbCircle
 10
312.3032585142137
 20
101.8637840594507
 30
0.0
 40
1.0
100
AcDbArc
 50
180.0
 51
257.8595339881376
  0
LINE
  5
3867
330
1F
100
AcDbEntity
  8
Calque1
100
AcDbLine
 10
323.8633624173617
 20
97.94323842661448
 30
0.0
 11
324.9228673834768
 21
97.94323842661448
 31
0.0
  0
ARC
  5
3868
330
1F
100
AcDbEntity
  8
Calque1
100
AcDbCircle
 10
324.9228673834768
 20
99.94323842661447
 30
0.0
 40
2.0
100
AcDbArc
 50
270.0
 51
282.1404660117557
  0
LINE
  5
3869
330
1F
100
AcDbEntity
  8
Calque1
100
AcDbLine
 10
329.6501148943244
 20
98.86865837724588
 30
0.0
 11
332.5107714992209
 21
98.86865837724815
 31
0.0
  0
ARC
  5
386A
330
1F
100
AcDbEntity
  8
Calque1
100
AcDbCircle
 10
329.6501148943262
 20
96.86865837724589
 30
0.0
 40
2.0
100
AcDbArc
 50
90.0
 51
102.1404660117557
  0
ARC
  5
386B
330
1F
100
AcDbEntity
  8
Calque1
100
AcDbCircle
 10
332.5107714992209
 20
100.8686583772489
 30
0.0
 40
2.000000000000795
100
AcDbArc
 50
270.0
 51
0.0000000000260551
  0
LINE
  5
386C
330
1F
100
AcDbEntity
  8
Calque1
100
AcDbLine
 10
334.5107714992209
 20
100.8686583772497
 30
0.0
 11
334.5107714991936
 21
133.9435563816557
 31
0.0
  0
LINE
  5
386D
330
1F
100
AcDbEntity
  8
Calque1
100
AcDbLine
 10
319.5107714991773
 20
101.4909442994937
 30
0.0
 11
319.9165362579424
 21
101.4909442994937
 31
0.0
  0
ARC
  5
386E
330
1F
100
AcDbEntity
  8
Calque1
100
AcDbCircle
 10
319.9165362579424
 20
100.4909442994937
 30
0.0
 40
1.0
100
AcDbArc
 50
40.43925157633309
 51
90.0
  0
LINE
  5
386F
330
1F
100
AcDbEntity
  8
Calque1
100
AcDbLine
 10
320.6776303797997
 20
101.1395857549018
 30
0.0
 11
323.1022682955045
 21
98.29459697120661
 31
0.0
  0
ARC
  5
3870
330
1F
100
AcDbEntity
  8
Calque1
100
AcDbCircle
 10
323.8633624173617
 20
98.94323842661448
 30
0.0
 40
1.0
100
AcDbArc
 50
220.4392515763331
 51
270.0
  0
LINE
  5
3871
330
1F
100
AcDbEntity
  8
Calque1
100
AcDbLine
 10
325.3434855530431
 20
97.98796853336932
 30
0.0
 11
329.2294967247599
 21
98.82392827049137
 31
0.0
  0
ARC
  5
3873
330
1F
100
AcDbEntity
  8
Calque1
100
AcDbCircle
 10
336.5107714991973
 20
133.943556381693
 30
0.0
 40
2.0
100
AcDbArc
 50
135.000000000152
 51
180.0000000001433
  0
LINE
  5
3874
330
1F
100
AcDbEntity
  8
Calque1
100
AcDbLine
 10
335.0965579368203
 20
135.3577699440628
 30
0.0
 11
341.7571788403529
 21
142.0183908476321
 31
0.0
  0
ARC
  5
3875
330
1F
100
AcDbEntity
  8
Calque1
100
AcDbCircle
 10
345.2927127462954
 20
138.4828569417105
 30
0.0
 40
4.999999999999156
100
AcDbArc
 50
90.00000000020843
 51
135.0000000001612
  0
LINE
  5
3876
330
1F
100
AcDbEntity
  8
Calque1
100
AcDbLine
 10
345.2927127462826
 20
143.4828569417097
 30
0.0
 11
348.8481199848848
 21
143.4828569417202
 31
0.0
  0
ARC
  5
3877
330
1F
100
AcDbEntity
  8
Calque1
100
AcDbCircle
 10
332.4125151526278
 20
253.1369263845297
 30
0.0
 40
0.8
100
AcDbArc
 50
269.6669848194606
 51
335.8545074969571
  0
LINE
  5
3878
330
1F
100
AcDbEntity
  8
Calque1
100
AcDbLine
 10
332.4078654097193
 20
252.336939897212
 30
0.0
 11
329.5136775518567
 21
252.336939897212
 31
0.0
  0
ARC
  5
3879
330
1F
100
AcDbEntity
  8
Calque1
100
AcDbCircle
 10
329.5125151527372
 20
253.1369263846228
 30
0.0
 40
0.8
100
AcDbArc
 50
98.75325702188092
 51
270.3330109855968
  0
LINE
  5
387A
330
1F
100
AcDbEntity
  8
Calque1
100
AcDbLine
 10
333.1425228947155
 20
252.8096822913932
 30
0.0
 11
333.826994457937
 21
252.5815289574401
 31
0.0
  0
ARC
  5
387B
330
1F
100
AcDbEntity
  8
Calque1
100
AcDbCircle
 10
332.4125151527496
 20
246.0519144076592
 30
0.0
 40
0.8
100
AcDbArc
 50
277.054905974838
 51
90.33301520305139
  0
LINE
  5
387C
330
1F
100
AcDbEntity
  8
Calque1
100
AcDbLine
 10
332.5107714991664
 20
245.2579712797282
 30
0.0
 11
332.5107714991645
 21
242.345629666203
 31
0.0
  0
ARC
  5
387D
330
1F
100
AcDbEntity
  8
Calque1
100
AcDbCircle
 10
332.4107714990405
 20
241.5519042728992
 30
0.0
 40
0.8
100
AcDbArc
 50
269.6669848192521
 51
82.81924412883382
  0
LINE
  5
387E
330
1F
100
AcDbEntity
  8
Calque1
100
AcDbLine
 10
332.4078654097193
 20
240.7519177855814
 30
0.0
 11
329.4936775518563
 21
240.7519177855832
 31
0.0
  0
ARC
  5
387F
330
1F
100
AcDbEntity
  8
Calque1
100
AcDbCircle
 10
329.4907714991477
 20
241.5519042729943
 30
0.0
 40
0.8
100
AcDbArc
 50
97.18075586087168
 51
270.3330109855968
  0
LINE
  5
3880
330
1F
100
AcDbEntity
  8
Calque1
100
AcDbLine
 10
329.3907714991637
 20
242.3456296663159
 30
0.0
 11
329.3907714991656
 21
245.2584106401324
 31
0.0
  0
ARC
  5
3881
330
1F
100
AcDbEntity
  8
Calque1
100
AcDbCircle
 10
329.4925151528569
 20
246.0519144075672
 30
0.0
 40
0.8
100
AcDbArc
 50
89.66698902628454
 51
262.6933594063515
  0
LINE
  5
3882
330
1F
100
AcDbEntity
  8
Calque1
100
AcDbLine
 10
329.4936775517526
 20
246.8519008949769
 30
0.0
 11
332.4078654095265
 21
246.8519008949751
 31
0.0
  0
ARC
  5
3883
330
1F
100
AcDbEntity
  8
Calque1
100
AcDbCircle
 10
332.4125151527405
 20
232.4678736602858
 30
0.0
 40
0.8
100
AcDbArc
 50
277.054905974838
 51
90.33301520305139
  0
LINE
  5
3884
330
1F
100
AcDbEntity
  8
Calque1
100
AcDbLine
 10
332.5107714991573
 20
231.6739305323548
 30
0.0
 11
332.5107714991554
 21
228.7615889188296
 31
0.0
  0
ARC
  5
3885
330
1F
100
AcDbEntity
  8
Calque1
100
AcDbCircle
 10
332.4107714990314
 20
227.9678635255258
 30
0.0
 40
0.8
100
AcDbArc
 50
269.6669848192521
 51
82.81924412883382
  0
LINE
  5
3886
330
1F
100
AcDbEntity
  8
Calque1
100
AcDbLine
 10
332.407865409712
 20
227.1678770382081
 30
0.0
 11
329.493677551849
 21
227.1678770382099
 31
0.0
  0
ARC
  5
3887
330
1F
100
AcDbEntity
  8
Calque1
100
AcDbCircle
 10
329.4907714991386
 20
227.9678635256209
 30
0.0
 40
0.8
100
AcDbArc
 50
97.18075586087168
 51
270.3330109855968
  0
LINE
  5
3888
330
1F
100
AcDbEntity
  8
Calque1
100
AcDbLine
 10
329.3907714991547
 20
228.7615889189425
 30
0.0
 11
329.3907714991565
 21
231.6743698927591
 31
0.0
  0
ARC
  5
3889
330
1F
100
AcDbEntity
  8
Calque1
100
AcDbCircle
 10
329.4925151528478
 20
232.4678736601939
 30
0.0
 40
0.8
100
AcDbArc
 50
89.66698902628454
 51
262.6933594063515
  0
LINE
  5
388A
330
1F
100
AcDbEntity
  8
Calque1
100
AcDbLine
 10
329.4936775517454
 20
233.2678601476035
 30
0.0
 11
332.4078654095192
 21
233.2678601476017
 31
0.0
  0
LINE
  5
388B
330
1F
100
AcDbEntity
  8
Calque1
100
AcDbLine
 10
309.630771499802
 20
253.9276086649103
 30
0.0
 11
309.6307714986506
 21
254.5195818003416
 31
0.0
  0
LINE
  5
388C
330
1F
100
AcDbEntity
  8
Calque1
100
AcDbLine
 10
329.3907714991692
 20
254.5195818004921
 30
0.0
 11
325.5105016750913
 21
255.6185473309756
 31
0.0
  0
LINE
  5
388D
330
1F
100
AcDbEntity
  8
Calque1
100
AcDbLine
 10
324.9655004760134
 20
255.6942361053666
 30
0.0
 11
319.5107714991737
 21
255.6942361053667
 31
0.0
  0
ARC
  5
388E
330
1F
100
AcDbEntity
  8
Calque1
100
AcDbCircle
 10
324.9655004760134
 20
253.6942361053666
 30
0.0
 40
2.0
100
AcDbArc
 50
74.18687856868055
 51
90.0
  0
LINE
  5
388F
330
1F
100
AcDbEntity
  8
Calque1
100
AcDbLine
 10
329.390771498016
 20
253.9276086648281
 30
0.0
 11
329.3907714991692
 21
254.519581800492
 31
0.0
  0
LINE
  5
3890
330
1F
100
AcDbEntity
  8
Calque1
100
AcDbLine
 10
311.3032585142136
 20
101.8637840594507
 30
0.0
 11
311.3032585142136
 21
102.6723982166984
 31
0.0
  0
LINE
  5
3891
330
1F
100
AcDbEntity
  8
Calque1
100
AcDbLine
 10
320.2718656210527
 20
111.7780935966422
 30
0.0
 11
327.4793786059817
 21
103.3210396720732
 31
0.0
  0
ARC
  5
3892
330
1F
100
AcDbEntity
  8
Calque1
100
AcDbCircle
 10
326.7182844841227
 20
102.6723982166693
 30
0.0
 40
1.0
100
AcDbArc
 50
359.9999999997655
 51
40.43925157617129
  0
LINE
  5
3893
330
1F
100
AcDbEntity
  8
Calque1
100
AcDbLine
 10
319.5107714991646
 20
103.9909442994938
 30
0.0
 11
321.0706594291005
 21
103.9909442994876
 31
0.0
  0
LINE
  5
3894
330
1F
100
AcDbEntity
  8
Calque1
100
AcDbLine
 10
321.8317535509577
 20
103.6395857548934
 30
0.0
 11
324.2170181473084
 21
100.8407963031318
 31
0.0
  0
ARC
  5
3895
330
1F
100
AcDbEntity
  8
Calque1
100
AcDbCircle
 10
321.0706594290968
 20
102.9909442994876
 30
0.0
 40
1.0
100
AcDbArc
 50
40.43925157617129
 51
89.99999999979156
  0
ARC
  5
3896
330
1F
100
AcDbEntity
  8
Calque1
100
AcDbCircle
 10
324.9781122691675
 20
101.4894377585368
 30
0.0
 40
1.0
100
AcDbArc
 50
220.439251576258
 51
282.1404660115423
  0
LINE
  5
3897
330
1F
100
AcDbEntity
  8
Calque1
100
AcDbLine
 10
325.188421353947
 20
100.5118028119133
 30
0.0
 11
326.9285935688986
 21
100.886149112798
 31
0.0
  0
ARC
  5
3898
330
1F
100
AcDbEntity
  8
Calque1
100
AcDbCircle
 10
326.7182844841191
 20
101.8637840594216
 30
0.0
 40
1.0
100
AcDbArc
 50
282.1404660115423
 51
359.9999999997655
  0
LINE
  5
3899
330
1F
100
AcDbEntity
  8
Calque1
100
AcDbLine
 10
327.7182844841191
 20
101.8637840594175
 30
0.0
 11
327.7182844841227
 21
102.6723982166652
 31
0.0
  0
LINE
  5
38FA
330
1F
100
AcDbEntity
  8
Calque1
100
AcDbLine
 10
743.8441311970664
 20
181.9782387942682
 30
0.0
 11
747.2531569657612
 21
181.9782387942682
 31
0.0
  0
ARC
  5
38FB
330
1F
100
AcDbEntity
  8
Calque1
100
AcDbCircle
 10
747.2531569657612
 20
182.4782387942682
 30
0.0
 40
0.5
100
AcDbArc
 50
270.0
 51
29.26206558716581
  0
LINE
  5
38FC
330
1F
100
AcDbEntity
  8
Calque1
100
AcDbLine
 10
748.7342377675368
 20
201.9782387942683
 30
0.0
 11
752.1861578761773
 21
201.9782387942683
 31
0.0
  0
ARC
  5
38FD
330
1F
100
AcDbEntity
  8
Calque1
100
AcDbCircle
 10
748.7342377675368
 20
201.4782387942682
 30
0.0
 40
0.5
100
AcDbArc
 50
90.0
 51
154.9999999999889
  0
LINE
  5
38FE
330
1F
100
AcDbEntity
  8
Calque1
100
AcDbLine
 10
749.9268654239886
 20
208.9782387942682
 30
0.0
 11
754.9268485333804
 21
208.9782387942682
 31
0.0
  0
ARC
  5
38FF
330
1F
100
AcDbEntity
  8
Calque1
100
AcDbCircle
 10
749.9268654239886
 20
208.4782387942683
 30
0.0
 40
0.5
100
AcDbArc
 50
90.0
 51
180.0
  0
LINE
  5
3900
330
1F
100
AcDbEntity
  8
Calque1
100
AcDbLine
 10
744.0564991911369
 20
206.9782387942682
 30
0.0
 11
744.0564991911369
 21
209.8887374147739
 31
0.0
  0
LINE
  5
3901
330
1F
100
AcDbEntity
  8
Calque1
100
AcDbLine
 10
732.1331944177828
 20
212.0384654017637
 30
0.0
 11
743.6277478554357
 21
210.383635008056
 31
0.0
  0
ARC
  5
3902
330
1F
100
AcDbEntity
  8
Calque1
100
AcDbCircle
 10
731.8481997605913
 20
210.0588750286379
 30
0.0
 40
2.0
100
AcDbArc
 50
81.80761823218539
 51
154.9999999999889
  0
ARC
  5
3903
330
1F
100
AcDbEntity
  8
Calque1
100
AcDbCircle
 10
743.5564991911369
 20
209.8887374147739
 30
0.0
 40
0.5
100
AcDbArc
 50
0.0
 51
81.80761823218539
  0
ARC
  5
3904
330
1F
100
AcDbEntity
  8
Calque1
100
AcDbCircle
 10
737.9603123925526
 20
207.7733829209606
 30
0.0
 40
1.5
100
AcDbArc
 50
261.8076182319748
 51
81.80761823229067
  0
CIRCLE
  5
3905
330
1F
100
AcDbEntity
  8
Calque1
100
AcDbCircle
 10
719.8049174531834
 20
180.6279345520447
 30
0.0
 40
1.5
  0
LINE
  5
3906
330
1F
100
AcDbEntity
  8
Calque1
100
AcDbLine
 10
726.9050878102925
 20
174.4782387942682
 30
0.0
 11
731.9050709196862
 21
174.4782387942682
 31
0.0
  0
LINE
  5
3907
330
1F
100
AcDbEntity
  8
Calque1
100
AcDbLine
 10
740.4891285576659
 20
174.4782387942682
 30
0.0
 11
745.4891116670596
 21
174.4782387942682
 31
0.0
  0
LINE
  5
3908
330
1F
100
AcDbEntity
  8
Calque1
100
AcDbLine
 10
720.8200488080647
 20
174.9782387942682
 30
0.0
 11
720.8200488080647
 21
176.9782387942682
 31
0.0
  0
ARC
  5
3909
330
1F
100
AcDbEntity
  8
Calque1
100
AcDbCircle
 10
720.3200488080646
 20
174.9782387942682
 30
0.0
 40
0.5
100
AcDbArc
 50
270.0
 51
0.0
  0
LINE
  5
390A
330
1F
100
AcDbEntity
  8
Calque1
100
AcDbLine
 10
719.5019757489017
 20
174.6721846607483
 30
0.0
 11
716.2783769210591
 21
178.8367061605315
 31
0.0
  0
ARC
  5
390B
330
1F
100
AcDbEntity
  8
Calque1
100
AcDbCircle
 10
717.8599248582677
 20
180.060922694611
 30
0.0
 40
2.0
100
AcDbArc
 50
154.9999999999889
 51
217.7421010072939
  0
LINE
  5
390C
330
1F
100
AcDbEntity
  8
Calque1
100
AcDbLine
 10
726.4050878102925
 20
174.9782387942682
 30
0.0
 11
726.4050878102925
 21
176.9782387942682
 31
0.0
  0
ARC
  5
390D
330
1F
100
AcDbEntity
  8
Calque1
100
AcDbCircle
 10
726.9050878102925
 20
174.9782387942682
 30
0.0
 40
0.5
100
AcDbArc
 50
180.0
 51
270.0
  0
LINE
  5
390E
330
1F
100
AcDbEntity
  8
Calque1
100
AcDbLine
 10
732.4050709196862
 20
174.9782387942682
 30
0.0
 11
732.4050709196862
 21
176.9782387942682
 31
0.0
  0
ARC
  5
390F
330
1F
100
AcDbEntity
  8
Calque1
100
AcDbCircle
 10
731.9050709196862
 20
174.9782387942682
 30
0.0
 40
0.5
100
AcDbArc
 50
270.0
 51
0.0
  0
LINE
  5
3910
330
1F
100
AcDbEntity
  8
Calque1
100
AcDbLine
 10
739.9891285576659
 20
174.9782387942682
 30
0.0
 11
739.9891285576659
 21
176.9782387942682
 31
0.0
  0
ARC
  5
3911
330
1F
100
AcDbEntity
  8
Calque1
100
AcDbCircle
 10
740.4891285576659
 20
174.9782387942682
 30
0.0
 40
0.5
100
AcDbArc
 50
180.0
 51
270.0
  0
LINE
  5
3912
330
1F
100
AcDbEntity
  8
Calque1
100
AcDbLine
 10
745.9891116670596
 20
174.9782387942682
 30
0.0
 11
745.9891116670596
 21
176.9782387942682
 31
0.0
  0
ARC
  5
3913
330
1F
100
AcDbEntity
  8
Calque1
100
AcDbCircle
 10
745.4891116670596
 20
174.9782387942682
 30
0.0
 40
0.5
100
AcDbArc
 50
270.0
 51
0.0
  0
ARC
  5
3914
330
1F
100
AcDbEntity
  8
Calque1
100
AcDbCircle
 10
739.1891285576666
 20
176.9782387942682
 30
0.0
 40
0.8
100
AcDbArc
 50
0.0
 51
180.0
  0
ARC
  5
3915
330
1F
100
AcDbEntity
  8
Calque1
100
AcDbCircle
 10
733.2050709196855
 20
176.9782387942682
 30
0.0
 40
0.8
100
AcDbArc
 50
0.0
 51
180.0
  0
ARC
  5
3916
330
1F
100
AcDbEntity
  8
Calque1
100
AcDbCircle
 10
725.6050878102932
 20
176.9782387942682
 30
0.0
 40
0.8
100
AcDbArc
 50
0.0
 51
180.0
  0
ARC
  5
3917
330
1F
100
AcDbEntity
  8
Calque1
100
AcDbCircle
 10
721.6200488080639
 20
176.9782387942682
 30
0.0
 40
0.8
100
AcDbArc
 50
0.0
 51
180.0
  0
ARC
  5
3918
330
1F
100
AcDbEntity
  8
Calque1
100
AcDbCircle
 10
746.7891116670589
 20
176.9782387942682
 30
0.0
 40
0.8
100
AcDbArc
 50
0.0
 51
180.0
  0
LINE
  5
3919
330
1F
100
AcDbEntity
  8
Calque1
100
AcDbLine
 10
716.047309284194
 20
180.9061592180926
 30
0.0
 11
730.0355841865175
 21
210.9041115521193
 31
0.0
  0
LINE
  5
391A
330
1F
100
AcDbEntity
  8
Calque1
100
AcDbLine
 10
724.4759176879479
 20
187.1503603544474
 30
0.0
 11
731.237809875799
 21
201.6512849470346
 31
0.0
  0
ARC
  5
391B
330
1F
100
AcDbEntity
  8
Calque1
100
AcDbCircle
 10
729.4251943017252
 20
202.4965214705162
 30
0.0
 40
2.0
100
AcDbArc
 50
334.999999999989
 51
65.00000000002117
  0
LINE
  5
391C
330
1F
100
AcDbEntity
  8
Calque1
100
AcDbLine
 10
749.4268654239886
 20
206.9782387942682
 30
0.0
 11
749.4268654239886
 21
208.4782387942683
 31
0.0
  0
LINE
  5
391D
330
1F
100
AcDbEntity
  8
Calque1
100
AcDbLine
 10
755.4268485333823
 20
206.9782387942682
 30
0.0
 11
755.4268485333805
 21
208.4782387942687
 31
0.0
  0
ARC
  5
391E
330
1F
100
AcDbEntity
  8
Calque1
100
AcDbCircle
 10
754.9268485333804
 20
208.4782387942683
 30
0.0
 40
0.5
100
AcDbArc
 50
0.0000000000521102
 51
90.0
  0
ARC
  5
391F
330
1F
100
AcDbEntity
  8
Calque1
100
AcDbCircle
 10
748.6268654239893
 20
206.9782387942682
 30
0.0
 40
0.8
100
AcDbArc
 50
180.0
 51
0.0
  0
ARC
  5
3920
330
1F
100
AcDbEntity
  8
Calque1
100
AcDbCircle
 10
756.2268485333797
 20
206.9782387942682
 30
0.0
 40
0.8
100
AcDbArc
 50
180.0
 51
0.0
  0
ARC
  5
3921
330
1F
100
AcDbEntity
  8
Calque1
100
AcDbCircle
 10
744.8564991911362
 20
206.9782387942682
 30
0.0
 40
0.8
100
AcDbArc
 50
180.0
 51
0.0
  0
LINE
  5
3922
330
1F
100
AcDbEntity
  8
Calque1
100
AcDbLine
 10
751.2475526478929
 20
187.2529866364234
 30
0.0
 11
760.1138998930919
 21
206.2669296633974
 31
0.0
  0
ARC
  5
3923
330
1F
100
AcDbEntity
  8
Calque1
100
AcDbCircle
 10
759.660745999573
 20
206.4782387942682
 30
0.0
 40
0.5
100
AcDbArc
 50
334.999999999989
 51
90.0
  0
ARC
  5
3924
330
1F
100
AcDbEntity
  8
Calque1
100
AcDbCircle
 10
753.0601682219667
 20
186.4077501129427
 30
0.0
 40
2.0
100
AcDbArc
 50
154.9999999999889
 51
209.2620655871424
  0
LINE
  5
3925
330
1F
100
AcDbEntity
  8
Calque1
100
AcDbLine
 10
755.6339211987188
 20
177.7226412765456
 30
0.0
 11
751.3153820383585
 21
185.4301401838324
 31
0.0
  0
ARC
  5
3926
330
1F
100
AcDbEntity
  8
Calque1
100
AcDbCircle
 10
755.1977246528176
 20
177.4782387942682
 30
0.0
 40
0.5
100
AcDbArc
 50
270.0
 51
29.26206558716581
  0
LINE
  5
3927
330
1F
100
AcDbEntity
  8
Calque1
100
AcDbLine
 10
728.95126693375
 20
189.4762153072693
 30
0.0
 11
736.2023168018195
 21
186.0965295510555
 31
0.0
  0
LINE
  5
3928
330
1F
100
AcDbEntity
  8
Calque1
100
AcDbLine
 10
729.7961883728048
 20
191.2889777742871
 30
0.0
 11
737.0472382408743
 21
187.9092920180715
 31
0.0
  0
LINE
  5
3929
330
1F
100
AcDbEntity
  8
Calque1
100
AcDbLine
 10
732.3309526899675
 20
196.7272651753424
 30
0.0
 11
739.5820025580369
 21
193.3475794191231
 31
0.0
  0
LINE
  5
392A
330
1F
100
AcDbEntity
  8
Calque1
100
AcDbLine
 10
731.4860312509145
 20
194.9145027083245
 30
0.0
 11
738.7370811189839
 21
191.5348169521089
 31
0.0
  0
ARC
  5
392B
330
1F
100
AcDbEntity
  8
Calque1
100
AcDbCircle
 10
731.9084919704409
 20
195.8208839418325
 30
0.0
 40
1.000000000001718
100
AcDbArc
 50
65.00995924158812
 51
245.0099592415881
  0
ARC
  5
392C
330
1F
100
AcDbEntity
  8
Calque1
100
AcDbCircle
 10
739.1595418385086
 20
192.4411981856151
 30
0.0
 40
1.000000000001718
100
AcDbArc
 50
245.0099592415881
 51
65.00995924158812
  0
ARC
  5
392D
330
1F
100
AcDbEntity
  8
Calque1
100
AcDbCircle
 10
729.3737276532802
 20
190.3825965407809
 30
0.0
 40
1.000000000001718
100
AcDbArc
 50
65.00995924158812
 51
245.0099592415881
  0
ARC
  5
392E
330
1F
100
AcDbEntity
  8
Calque1
100
AcDbCircle
 10
736.6247775213478
 20
187.0029107845635
 30
0.0
 40
1.000000000001718
100
AcDbArc
 50
245.0099592415881
 51
65.00995924158812
  0
LINE
  5
392F
330
1F
100
AcDbEntity
  8
Calque1
100
AcDbLine
 10
746.1045028152702
 20
187.2529866364234
 30
0.0
 11
752.6393117696962
 21
201.2669296633981
 31
0.0
  0
ARC
  5
3930
330
1F
100
AcDbEntity
  8
Calque1
100
AcDbCircle
 10
752.1861578761773
 20
201.4782387942682
 30
0.0
 40
0.5
100
AcDbArc
 50
334.999999999989
 51
90.0
  0
ARC
  5
3931
330
1F
100
AcDbEntity
  8
Calque1
100
AcDbCircle
 10
747.917118389344
 20
186.4077501129427
 30
0.0
 40
2.0
100
AcDbArc
 50
154.9999999999889
 51
209.2620655871424
  0
LINE
  5
3932
330
1F
100
AcDbEntity
  8
Calque1
100
AcDbLine
 10
747.6893535116623
 20
182.7226412765449
 30
0.0
 11
746.1723322057359
 21
185.4301401838324
 31
0.0
  0
LINE
  5
3933
330
1F
100
AcDbEntity
  8
Calque1
100
AcDbLine
 10
741.549204787666
 20
187.2529866364234
 30
0.0
 11
748.2810838740179
 21
201.6895479251391
 31
0.0
  0
ARC
  5
3934
330
1F
100
AcDbEntity
  8
Calque1
100
AcDbCircle
 10
743.3618203617397
 20
186.4077501129427
 30
0.0
 40
2.0
100
AcDbArc
 50
154.9999999999889
 51
209.2620655871424
  0
LINE
  5
3935
330
1F
100
AcDbEntity
  8
Calque1
100
AcDbLine
 10
743.4079346511652
 20
182.2338363119909
 30
0.0
 11
741.6170341781317
 21
185.4301401838324
 31
0.0
  0
ARC
  5
3936
330
1F
100
AcDbEntity
  8
Calque1
100
AcDbCircle
 10
743.8441311970664
 20
182.4782387942682
 30
0.0
 40
0.5
100
AcDbArc
 50
209.2620655871658
 51
270.0
  0
LINE
  5
3937
330
1F
100
AcDbEntity
  8
Calque1
100
AcDbLine
 10
722.4200488080632
 20
176.9782387942682
 30
0.0
 11
724.805087810294
 21
176.9782387942682
 31
0.0
  0
LINE
  5
3938
330
1F
100
AcDbEntity
  8
Calque1
100
AcDbLine
 10
734.0050709196848
 20
176.9782387942682
 30
0.0
 11
738.3891285576673
 21
176.9782387942682
 31
0.0
  0
LINE
  5
3939
330
1F
100
AcDbEntity
  8
Calque1
100
AcDbLine
 10
747.5891116670582
 20
176.9782387942682
 30
0.0
 11
755.1977246528176
 21
176.9782387942682
 31
0.0
  0
LINE
  5
393A
330
1F
100
AcDbEntity
  8
Calque1
100
AcDbLine
 10
745.6564991911355
 20
206.9782387942682
 30
0.0
 11
747.82686542399
 21
206.9782387942682
 31
0.0
  0
LINE
  5
393B
330
1F
100
AcDbEntity
  8
Calque1
100
AcDbLine
 10
757.026848533379
 20
206.9782387942682
 30
0.0
 11
759.660745999573
 21
206.9782387942682
 31
0.0
  0
LINE
  5
393C
330
1F
100
AcDbEntity
  8
Calque1
100
AcDbLine
 10
719.8973627332043
 20
174.4782387942682
 30
0.0
 11
720.3200488080646
 21
174.4782387942682
 31
0.0
  0
ARC
  5
393D
330
1F
100
AcDbEntity
  8
Calque1
100
AcDbCircle
 10
719.8973627332043
 20
174.9782387942682
 30
0.0
 40
0.5
100
AcDbArc
 50
217.7421010072939
 51
270.0
  0
LINE
  5
393E
330
1F
100
AcDbEntity
  8
Calque1
100
AcDbLine
 10
734.0207955680734
 20
200.3527901093782
 30
0.0
 11
741.2718454361429
 21
196.973104353159
 31
0.0
  0
LINE
  5
393F
330
1F
100
AcDbEntity
  8
Calque1
100
AcDbLine
 10
733.1758741290204
 20
198.5400276423604
 30
0.0
 11
740.4269239970899
 21
195.1603418861448
 31
0.0
  0
ARC
  5
3940
330
1F
100
AcDbEntity
  8
Calque1
100
AcDbCircle
 10
733.598334848547
 20
199.4464088758684
 30
0.0
 40
1.000000000001718
100
AcDbArc
 50
65.00995924158812
 51
245.0099592415881
  0
ARC
  5
3941
330
1F
100
AcDbEntity
  8
Calque1
100
AcDbCircle
 10
740.8493847166146
 20
196.066723119651
 30
0.0
 40
1.000000000001718
100
AcDbArc
 50
245.0099592415881
 51
65.00995924158812
  0
LINE
  5
3942
330
1F
100
AcDbEntity
  8
Calque1
100
AcDbLine
 10
727.261424055644
 20
185.8506903732334
 30
0.0
 11
734.5124739237135
 21
182.4710046170196
 31
0.0
  0
LINE
  5
3943
330
1F
100
AcDbEntity
  8
Calque1
100
AcDbLine
 10
728.1063454946989
 20
187.6634528402512
 30
0.0
 11
735.3573953627683
 21
184.2837670840356
 31
0.0
  0
ARC
  5
3944
330
1F
100
AcDbEntity
  8
Calque1
100
AcDbCircle
 10
727.6838847751742
 20
186.757071606745
 30
0.0
 40
1.000000000001718
100
AcDbArc
 50
65.00995924158812
 51
245.0099592415881
  0
ARC
  5
3945
330
1F
100
AcDbEntity
  8
Calque1
100
AcDbCircle
 10
734.9349346432418
 20
183.3773858505276
 30
0.0
 40
1.000000000001718
100
AcDbArc
 50
245.0099592415881
 51
65.00995924158812
  0
ARC
  5
3946
330
1F
100
AcDbEntity
  8
Calque1
100
AcDbCircle
 10
734.6531786441674
 20
208.2494993244877
 30
0.0
 40
1.5
100
AcDbArc
 50
81.80761823197499
 51
261.8076182322907
  0
LINE
  5
3947
330
1F
100
AcDbEntity
  8
Calque1
100
AcDbLine
 10
734.8669246370654
 20
209.7341921043315
 30
0.0
 11
738.1740583854471
 21
209.2580757008043
 31
0.0
  0
LINE
  5
3948
330
1F
100
AcDbEntity
  8
Calque1
100
AcDbLine
 10
734.4394326512765
 20
206.7648065446431
 30
0.0
 11
737.7465663996599
 21
206.2886901411159
 31
0.0
  0
LINE
  5
3949
330
1F
100
AcDbEntity
  8
Calque1
100
AcDbLine
 10
721.8180655903934
 20
186.1829813038566
 30
0.0
 11
719.0991422292854
 21
187.4508360890777
 31
0.0
  0
ARC
  5
394A
330
1F
100
AcDbEntity
  8
Calque1
100
AcDbCircle
 10
722.6633021138741
 20
187.9955968779293
 30
0.0
 40
2.0
100
AcDbArc
 50
245.0000000000212
 51
334.999999999989
  0
LINE
  5
394B
330
1F
100
AcDbEntity
  8
Calque1
100
AcDbLine
 10
730.2704308252059
 20
204.3091370445893
 30
0.0
 11
727.5515074640998
 21
205.5769918298101
 31
0.0
  0
LINE
  5
394C
330
1F
100
AcDbEntity
  8
Calque1
100
AcDbLine
 10
738.5370107616664
 20
120.0066141729032
 30
0.0
 11
735.1279849929714
 21
120.0066141729032
 31
0.0
  0
ARC
  5
394D
330
1F
100
AcDbEntity
  8
Calque1
100
AcDbCircle
 10
735.1279849929714
 20
120.5066141729032
 30
0.0
 40
0.5
100
AcDbArc
 50
150.7379344128367
 51
270.0
  0
LINE
  5
394E
330
1F
100
AcDbEntity
  8
Calque1
100
AcDbLine
 10
733.646904191196
 20
140.0066141729032
 30
0.0
 11
730.1949840825555
 21
140.0066141729032
 31
0.0
  0
ARC
  5
394F
330
1F
100
AcDbEntity
  8
Calque1
100
AcDbCircle
 10
733.646904191196
 20
139.5066141729032
 30
0.0
 40
0.5
100
AcDbArc
 50
25.00000000000861
 51
90.0
  0
LINE
  5
3950
330
1F
100
AcDbEntity
  8
Calque1
100
AcDbLine
 10
732.4542765347441
 20
147.0066141729032
 30
0.0
 11
727.4542934253522
 21
147.0066141729032
 31
0.0
  0
ARC
  5
3951
330
1F
100
AcDbEntity
  8
Calque1
100
AcDbCircle
 10
732.4542765347441
 20
146.5066141729032
 30
0.0
 40
0.5
100
AcDbArc
 50
0.0
 51
90.0
  0
LINE
  5
3952
330
1F
100
AcDbEntity
  8
Calque1
100
AcDbLine
 10
738.3246427675958
 20
145.0066141729032
 30
0.0
 11
738.3246427675958
 21
147.9171127934089
 31
0.0
  0
LINE
  5
3953
330
1F
100
AcDbEntity
  8
Calque1
100
AcDbLine
 10
750.24794754095
 20
150.0668407803987
 30
0.0
 11
738.7533941032971
 21
148.412010386691
 31
0.0
  0
ARC
  5
3954
330
1F
100
AcDbEntity
  8
Calque1
100
AcDbCircle
 10
750.5329421981414
 20
148.0872504072729
 30
0.0
 40
2.0
100
AcDbArc
 50
25.00000000000861
 51
98.19238176781462
  0
ARC
  5
3955
330
1F
100
AcDbEntity
  8
Calque1
100
AcDbCircle
 10
738.8246427675958
 20
147.9171127934089
 30
0.0
 40
0.5
100
AcDbArc
 50
98.19238176781462
 51
180.0
  0
ARC
  5
3956
330
1F
100
AcDbEntity
  8
Calque1
100
AcDbCircle
 10
744.4208295661801
 20
145.8017582995956
 30
0.0
 40
1.5
100
AcDbArc
 50
98.1923817677093
 51
278.1923817680252
  0
CIRCLE
  5
3957
330
1F
100
AcDbEntity
  8
Calque1
100
AcDbCircle
 10
762.5762245055494
 20
118.6563099306797
 30
0.0
 40
1.5
  0
LINE
  5
3958
330
1F
100
AcDbEntity
  8
Calque1
100
AcDbLine
 10
755.4760541484402
 20
112.5066141729032
 30
0.0
 11
750.4760710390464
 21
112.5066141729032
 31
0.0
  0
LINE
  5
3959
330
1F
100
AcDbEntity
  8
Calque1
100
AcDbLine
 10
741.8920134010668
 20
112.5066141729032
 30
0.0
 11
736.892030291673
 21
112.5066141729032
 31
0.0
  0
LINE
  5
395A
330
1F
100
AcDbEntity
  8
Calque1
100
AcDbLine
 10
761.561093150668
 20
113.0066141729032
 30
0.0
 11
761.561093150668
 21
115.0066141729032
 31
0.0
  0
ARC
  5
395B
330
1F
100
AcDbEntity
  8
Calque1
100
AcDbCircle
 10
762.061093150668
 20
113.0066141729032
 30
0.0
 40
0.5
100
AcDbArc
 50
180.0
 51
270.0
  0
LINE
  5
395C
330
1F
100
AcDbEntity
  8
Calque1
100
AcDbLine
 10
762.879166209831
 20
112.7005600393834
 30
0.0
 11
766.1027650376736
 21
116.8650815391665
 31
0.0
  0
ARC
  5
395D
330
1F
100
AcDbEntity
  8
Calque1
100
AcDbCircle
 10
764.521217100465
 20
118.089298073246
 30
0.0
 40
2.0
100
AcDbArc
 50
322.2578989927061
 51
25.00000000000861
  0
LINE
  5
395E
330
1F
100
AcDbEntity
  8
Calque1
100
AcDbLine
 10
755.9760541484402
 20
113.0066141729032
 30
0.0
 11
755.9760541484402
 21
115.0066141729032
 31
0.0
  0
ARC
  5
395F
330
1F
100
AcDbEntity
  8
Calque1
100
AcDbCircle
 10
755.4760541484402
 20
113.0066141729032
 30
0.0
 40
0.5
100
AcDbArc
 50
270.0
 51
0.0
  0
LINE
  5
3960
330
1F
100
AcDbEntity
  8
Calque1
100
AcDbLine
 10
749.9760710390464
 20
113.0066141729032
 30
0.0
 11
749.9760710390464
 21
115.0066141729032
 31
0.0
  0
ARC
  5
3961
330
1F
100
AcDbEntity
  8
Calque1
100
AcDbCircle
 10
750.4760710390464
 20
113.0066141729032
 30
0.0
 40
0.5
100
AcDbArc
 50
180.0
 51
270.0
  0
LINE
  5
3962
330
1F
100
AcDbEntity
  8
Calque1
100
AcDbLine
 10
742.3920134010668
 20
113.0066141729032
 30
0.0
 11
742.3920134010668
 21
115.0066141729032
 31
0.0
  0
ARC
  5
3963
330
1F
100
AcDbEntity
  8
Calque1
100
AcDbCircle
 10
741.8920134010668
 20
113.0066141729032
 30
0.0
 40
0.5
100
AcDbArc
 50
270.0
 51
0.0
  0
LINE
  5
3964
330
1F
100
AcDbEntity
  8
Calque1
100
AcDbLine
 10
736.3920302916731
 20
113.0066141729032
 30
0.0
 11
736.3920302916731
 21
115.0066141729032
 31
0.0
  0
ARC
  5
3965
330
1F
100
AcDbEntity
  8
Calque1
100
AcDbCircle
 10
736.892030291673
 20
113.0066141729032
 30
0.0
 40
0.5
100
AcDbArc
 50
180.0
 51
270.0
  0
ARC
  5
3966
330
1F
100
AcDbEntity
  8
Calque1
100
AcDbCircle
 10
743.1920134010661
 20
115.0066141729032
 30
0.0
 40
0.8
100
AcDbArc
 50
0.0
 51
180.0
  0
ARC
  5
3967
330
1F
100
AcDbEntity
  8
Calque1
100
AcDbCircle
 10
749.1760710390471
 20
115.0066141729032
 30
0.0
 40
0.8
100
AcDbArc
 50
0.0
 51
180.0
  0
ARC
  5
3968
330
1F
100
AcDbEntity
  8
Calque1
100
AcDbCircle
 10
756.7760541484394
 20
115.0066141729032
 30
0.0
 40
0.8
100
AcDbArc
 50
0.0
 51
180.0
  0
ARC
  5
3969
330
1F
100
AcDbEntity
  8
Calque1
100
AcDbCircle
 10
760.7610931506687
 20
115.0066141729032
 30
0.0
 40
0.8
100
AcDbArc
 50
0.0
 51
180.0
  0
ARC
  5
396A
330
1F
100
AcDbEntity
  8
Calque1
100
AcDbCircle
 10
735.5920302916738
 20
115.0066141729032
 30
0.0
 40
0.8
100
AcDbArc
 50
0.0
 51
180.0
  0
LINE
  5
396B
330
1F
100
AcDbEntity
  8
Calque1
100
AcDbLine
 10
766.3338326745388
 20
118.9345345967276
 30
0.0
 11
752.3455577722152
 21
148.9324869307543
 31
0.0
  0
LINE
  5
396C
330
1F
100
AcDbEntity
  8
Calque1
100
AcDbLine
 10
757.9052242707848
 20
125.1787357330824
 30
0.0
 11
751.1433320829337
 21
139.6796603256696
 31
0.0
  0
ARC
  5
396D
330
1F
100
AcDbEntity
  8
Calque1
100
AcDbCircle
 10
752.9559476570075
 20
140.5248968491512
 30
0.0
 40
2.0
100
AcDbArc
 50
114.9999999999783
 51
205.0000000000086
  0
LINE
  5
396E
330
1F
100
AcDbEntity
  8
Calque1
100
AcDbLine
 10
732.9542765347441
 20
145.0066141729032
 30
0.0
 11
732.9542765347441
 21
146.5066141729032
 31
0.0
  0
LINE
  5
396F
330
1F
100
AcDbEntity
  8
Calque1
100
AcDbLine
 10
726.9542934253504
 20
145.0066141729032
 30
0.0
 11
726.9542934253522
 21
146.5066141729037
 31
0.0
  0
ARC
  5
3970
330
1F
100
AcDbEntity
  8
Calque1
100
AcDbCircle
 10
727.4542934253522
 20
146.5066141729032
 30
0.0
 40
0.5
100
AcDbArc
 50
90.0
 51
179.9999999999479
  0
ARC
  5
3971
330
1F
100
AcDbEntity
  8
Calque1
100
AcDbCircle
 10
733.7542765347434
 20
145.0066141729032
 30
0.0
 40
0.8
100
AcDbArc
 50
180.0
 51
0.0
  0
ARC
  5
3972
330
1F
100
AcDbEntity
  8
Calque1
100
AcDbCircle
 10
726.154293425353
 20
145.0066141729032
 30
0.0
 40
0.8
100
AcDbArc
 50
180.0
 51
0.0
  0
ARC
  5
3973
330
1F
100
AcDbEntity
  8
Calque1
100
AcDbCircle
 10
737.5246427675965
 20
145.0066141729032
 30
0.0
 40
0.8
100
AcDbArc
 50
180.0
 51
0.0
  0
LINE
  5
3974
330
1F
100
AcDbEntity
  8
Calque1
100
AcDbLine
 10
731.1335893108398
 20
125.2813620150584
 30
0.0
 11
722.2672420656408
 21
144.2953050420324
 31
0.0
  0
ARC
  5
3975
330
1F
100
AcDbEntity
  8
Calque1
100
AcDbCircle
 10
722.7203959591597
 20
144.5066141729032
 30
0.0
 40
0.5
100
AcDbArc
 50
90.0
 51
205.0000000000086
  0
ARC
  5
3976
330
1F
100
AcDbEntity
  8
Calque1
100
AcDbCircle
 10
729.3209737367661
 20
124.4361254915777
 30
0.0
 40
2.0
100
AcDbArc
 50
330.7379344128547
 51
25.00000000000861
  0
LINE
  5
3977
330
1F
100
AcDbEntity
  8
Calque1
100
AcDbLine
 10
726.747220760014
 20
115.7510166551806
 30
0.0
 11
731.0657599203741
 21
123.4585155624674
 31
0.0
  0
ARC
  5
3978
330
1F
100
AcDbEntity
  8
Calque1
100
AcDbCircle
 10
727.1834173059151
 20
115.5066141729032
 30
0.0
 40
0.5
100
AcDbArc
 50
150.7379344128367
 51
270.0
  0
LINE
  5
3979
330
1F
100
AcDbEntity
  8
Calque1
100
AcDbLine
 10
753.4298750249827
 20
127.5045906859043
 30
0.0
 11
746.1788251569132
 21
124.1249049296905
 31
0.0
  0
LINE
  5
397A
330
1F
100
AcDbEntity
  8
Calque1
100
AcDbLine
 10
752.5849535859279
 20
129.3173531529221
 30
0.0
 11
745.3339037178584
 21
125.9376673967065
 31
0.0
  0
LINE
  5
397B
330
1F
100
AcDbEntity
  8
Calque1
100
AcDbLine
 10
750.0501892687652
 20
134.7556405539774
 30
0.0
 11
742.7991394006958
 21
131.3759547977581
 31
0.0
  0
LINE
  5
397C
330
1F
100
AcDbEntity
  8
Calque1
100
AcDbLine
 10
750.8951107078182
 20
132.9428780869596
 30
0.0
 11
743.6440608397488
 21
129.5631923307439
 31
0.0
  0
ARC
  5
397D
330
1F
100
AcDbEntity
  8
Calque1
100
AcDbCircle
 10
750.4726499882917
 20
133.8492593204676
 30
0.0
 40
1.000000000001718
100
AcDbArc
 50
294.9900407584061
 51
114.9900407584062
  0
ARC
  5
397E
330
1F
100
AcDbEntity
  8
Calque1
100
AcDbCircle
 10
743.2216001202241
 20
130.4695735642501
 30
0.0
 40
1.000000000001718
100
AcDbArc
 50
114.9900407584062
 51
294.9900407584061
  0
ARC
  5
397F
330
1F
100
AcDbEntity
  8
Calque1
100
AcDbCircle
 10
753.0074143054526
 20
128.4109719194159
 30
0.0
 40
1.000000000001718
100
AcDbArc
 50
294.9900407584061
 51
114.9900407584062
  0
ARC
  5
3980
330
1F
100
AcDbEntity
  8
Calque1
100
AcDbCircle
 10
745.7563644373849
 20
125.0312861631985
 30
0.0
 40
1.000000000001718
100
AcDbArc
 50
114.9900407584062
 51
294.9900407584061
  0
LINE
  5
3981
330
1F
100
AcDbEntity
  8
Calque1
100
AcDbLine
 10
736.2766391434624
 20
125.2813620150584
 30
0.0
 11
729.7418301890366
 21
139.2953050420331
 31
0.0
  0
ARC
  5
3982
330
1F
100
AcDbEntity
  8
Calque1
100
AcDbCircle
 10
730.1949840825555
 20
139.5066141729032
 30
0.0
 40
0.5
100
AcDbArc
 50
90.0
 51
205.0000000000086
  0
ARC
  5
3983
330
1F
100
AcDbEntity
  8
Calque1
100
AcDbCircle
 10
734.4640235693887
 20
124.4361254915777
 30
0.0
 40
2.0
100
AcDbArc
 50
330.7379344128547
 51
25.00000000000861
  0
LINE
  5
3984
330
1F
100
AcDbEntity
  8
Calque1
100
AcDbLine
 10
734.6917884470704
 20
120.7510166551799
 30
0.0
 11
736.2088097529968
 21
123.4585155624674
 31
0.0
  0
LINE
  5
3985
330
1F
100
AcDbEntity
  8
Calque1
100
AcDbLine
 10
740.8319371710668
 20
125.2813620150584
 30
0.0
 11
734.1000580847149
 21
139.7179233037741
 31
0.0
  0
ARC
  5
3986
330
1F
100
AcDbEntity
  8
Calque1
100
AcDbCircle
 10
739.0193215969929
 20
124.4361254915777
 30
0.0
 40
2.0
100
AcDbArc
 50
330.7379344128547
 51
25.00000000000861
  0
LINE
  5
3987
330
1F
100
AcDbEntity
  8
Calque1
100
AcDbLine
 10
738.9732073075674
 20
120.2622116906259
 30
0.0
 11
740.7641077806011
 21
123.4585155624674
 31
0.0
  0
ARC
  5
3988
330
1F
100
AcDbEntity
  8
Calque1
100
AcDbCircle
 10
738.5370107616664
 20
120.5066141729032
 30
0.0
 40
0.5
100
AcDbArc
 50
270.0
 51
330.7379344128367
  0
LINE
  5
3989
330
1F
100
AcDbEntity
  8
Calque1
100
AcDbLine
 10
759.9610931506695
 20
115.0066141729032
 30
0.0
 11
757.5760541484387
 21
115.0066141729032
 31
0.0
  0
LINE
  5
398A
330
1F
100
AcDbEntity
  8
Calque1
100
AcDbLine
 10
748.3760710390479
 20
115.0066141729032
 30
0.0
 11
743.9920134010653
 21
115.0066141729032
 31
0.0
  0
LINE
  5
398B
330
1F
100
AcDbEntity
  8
Calque1
100
AcDbLine
 10
734.7920302916746
 20
115.0066141729032
 30
0.0
 11
727.1834173059151
 21
115.0066141729032
 31
0.0
  0
LINE
  5
398C
330
1F
100
AcDbEntity
  8
Calque1
100
AcDbLine
 10
736.7246427675972
 20
145.0066141729032
 30
0.0
 11
734.5542765347427
 21
145.0066141729032
 31
0.0
  0
LINE
  5
398D
330
1F
100
AcDbEntity
  8
Calque1
100
AcDbLine
 10
725.3542934253537
 20
145.0066141729032
 30
0.0
 11
722.7203959591597
 21
145.0066141729032
 31
0.0
  0
LINE
  5
398E
330
1F
100
AcDbEntity
  8
Calque1
100
AcDbLine
 10
762.4837792255284
 20
112.5066141729032
 30
0.0
 11
762.061093150668
 21
112.5066141729032
 31
0.0
  0
ARC
  5
398F
330
1F
100
AcDbEntity
  8
Calque1
100
AcDbCircle
 10
762.4837792255284
 20
113.0066141729032
 30
0.0
 40
0.5
100
AcDbArc
 50
270.0
 51
322.2578989927061
  0
LINE
  5
3990
330
1F
100
AcDbEntity
  8
Calque1
100
AcDbLine
 10
748.3603463906592
 20
138.3811654880132
 30
0.0
 11
741.1092965225898
 21
135.001479731794
 31
0.0
  0
LINE
  5
3991
330
1F
100
AcDbEntity
  8
Calque1
100
AcDbLine
 10
749.2052678297122
 20
136.5684030209954
 30
0.0
 11
741.9542179616428
 21
133.1887172647798
 31
0.0
  0
ARC
  5
3992
330
1F
100
AcDbEntity
  8
Calque1
100
AcDbCircle
 10
748.7828071101858
 20
137.4747842545034
 30
0.0
 40
1.000000000001718
100
AcDbArc
 50
294.9900407584061
 51
114.9900407584062
  0
ARC
  5
3993
330
1F
100
AcDbEntity
  8
Calque1
100
AcDbCircle
 10
741.5317572421181
 20
134.095098498286
 30
0.0
 40
1.000000000001718
100
AcDbArc
 50
114.9900407584062
 51
294.9900407584061
  0
LINE
  5
3994
330
1F
100
AcDbEntity
  8
Calque1
100
AcDbLine
 10
755.1197179030887
 20
123.8790657518684
 30
0.0
 11
747.8686680350192
 21
120.4993799956546
 31
0.0
  0
LINE
  5
3995
330
1F
100
AcDbEntity
  8
Calque1
100
AcDbLine
 10
754.2747964640339
 20
125.6918282188862
 30
0.0
 11
747.0237465959644
 21
122.3121424626706
 31
0.0
  0
ARC
  5
3996
330
1F
100
AcDbEntity
  8
Calque1
100
AcDbCircle
 10
754.6972571835586
 20
124.78544698538
 30
0.0
 40
1.000000000001718
100
AcDbArc
 50
294.9900407584061
 51
114.9900407584062
  0
ARC
  5
3997
330
1F
100
AcDbEntity
  8
Calque1
100
AcDbCircle
 10
747.4462073154909
 20
121.4057612291626
 30
0.0
 40
1.000000000001718
100
AcDbArc
 50
114.9900407584062
 51
294.9900407584061
  0
ARC
  5
3998
330
1F
100
AcDbEntity
  8
Calque1
100
AcDbCircle
 10
747.7279633145654
 20
146.2778747031227
 30
0.0
 40
1.5
100
AcDbArc
 50
278.1923817677093
 51
98.19238176802521
  0
LINE
  5
3999
330
1F
100
AcDbEntity
  8
Calque1
100
AcDbLine
 10
747.5142173216672
 20
147.7625674829664
 30
0.0
 11
744.2070835732856
 21
147.2864510794393
 31
0.0
  0
LINE
  5
399A
330
1F
100
AcDbEntity
  8
Calque1
100
AcDbLine
 10
747.9417093074562
 20
144.7931819232781
 30
0.0
 11
744.6345755590727
 21
144.3170655197509
 31
0.0
  0
LINE
  5
399B
330
1F
100
AcDbEntity
  8
Calque1
100
AcDbLine
 10
760.5630763683393
 20
124.2113566824917
 30
0.0
 11
763.2819997294473
 21
125.4792114677127
 31
0.0
  0
ARC
  5
399C
330
1F
100
AcDbEntity
  8
Calque1
100
AcDbCircle
 10
759.7178398448586
 20
126.0239722565643
 30
0.0
 40
2.0
100
AcDbArc
 50
205.0000000000086
 51
294.9999999999783
  0
LINE
  5
399D
330
1F
100
AcDbEntity
  8
Calque1
100
AcDbLine
 10
752.1107111335268
 20
142.3375124232243
 30
0.0
 11
754.8296344946329
 21
143.6053672084451
 31
0.0
  0
MTEXT
  5
3B3F
102
{ACAD_XDICTIONARY
360
3B40
102
}
330
1F
100
AcDbEntity
  8
0
  6
JIS_09_08
100
AcDbMText
 10
36.942726
 20
397.6964636201574
 30
0.0
 40
20.0
 41
689.506779511229
 46
0.0
 71
     1
 72
     5
  1
{\fISOCPEUR|b0|i0|c0|p34;FRAME JeNo v1.0_FULL}
 73
     1
 44
1.0
1001
ACAD
1000
ACAD_MTEXT_COLUMN_INFO_BEGIN
1070
    75
1070
     2
1070
    79
1070
     0
1070
    76
1070
     1
1070
    78
1070
     0
1070
    48
1040
689.506779511229
1070
    49
1040
12.5
1070
    50
1070
     1
1040
0.0
1000
ACAD_MTEXT_COLUMN_INFO_END
  0
LINE
  5
3B41
330
1F
100
AcDbEntity
  8
Calque1
100
AcDbLine
 10
0.0
 20
429.4858815534793
 30
0.0
 11
811.6543081141454
 21
429.4858815534799
 31
0.0
  0
LWPOLYLINE
  5
3F27
330
1F
100
AcDbEntity
  8
Calque1
100
AcDbPolyline
 90
       12
 70
     1
 43
0.0
 10
453.148005948683
 20
222.9761629648911
 10
456.2176087325269
 20
222.9761629648911
 42
-0.198912367379658
 10
456.5711621231212
 20
222.8297163554844
 10
459.0363607311983
 20
220.3645177474073
 42
-0.198912367379658
 10
459.1828073406059
 20
220.0109643568139
 10
459.1828073406059
 20
206.4761629648911
 42
-0.4142135623730951
 10
458.6828073406059
 20
205.976162964891
 10
450.6828073406059
 20
205.976162964891
 42
-0.4142135623730951
 10
450.1828073406058
 20
206.4761629648911
 10
450.1828073406058
 20
220.0109643568139
 42
-0.1989123673797008
 10
450.3292539500116
 20
220.3645177474073
 10
452.7944525580887
 20
222.8297163554844
 42
-0.1989123673796127
  0
CIRCLE
  5
3F28
330
1F
100
AcDbEntity
  8
Calque1
100
AcDbCircle
 10
470.0248897560149
 20
158.0637579096324
 30
0.0
 40
3.0
  0
CIRCLE
  5
3F29
330
1F
100
AcDbEntity
  8
Calque1
100
AcDbCircle
 10
439.3407249251931
 20
158.0637579096324
 30
0.0
 40
3.0
  0
CIRCLE
  5
3F2A
330
1F
100
AcDbEntity
  8
Calque1
100
AcDbCircle
 10
439.3407249251949
 20
211.3024456902949
 30
0.0
 40
1.5
  0
CIRCLE
  5
3F2B
330
1F
100
AcDbEntity
  8
Calque1
100
AcDbCircle
 10
470.0248897560132
 20
211.3024456902949
 30
0.0
 40
1.5
  0
CIRCLE
  5
3F2C
330
1F
100
AcDbEntity
  8
Calque1
100
AcDbCircle
 10
443.182807340604
 20
115.3986003072004
 30
0.0
 40
1.5
  0
CIRCLE
  5
3F2D
330
1F
100
AcDbEntity
  8
Calque1
100
AcDbCircle
 10
439.3407249251931
 20
158.0637579096324
 30
0.0
 40
1.5
  0
CIRCLE
  5
3F2E
330
1F
100
AcDbEntity
  8
Calque1
100
AcDbCircle
 10
466.1828073406041
 20
115.3986003072004
 30
0.0
 40
1.5
  0
CIRCLE
  5
3F2F
330
1F
100
AcDbEntity
  8
Calque1
100
AcDbCircle
 10
470.0248897560149
 20
158.0637579096324
 30
0.0
 40
1.5
  0
CIRCLE
  5
3F30
330
1F
100
AcDbEntity
  8
Calque1
100
AcDbCircle
 10
443.182807340604
 20
115.3986003072004
 30
0.0
 40
3.0
  0
CIRCLE
  5
3F31
330
1F
100
AcDbEntity
  8
Calque1
100
AcDbCircle
 10
466.1828073406041
 20
115.3986003072004
 30
0.0
 40
3.0
  0
ARC
  5
3F32
330
1F
100
AcDbEntity
  8
Calque1
100
AcDbCircle
 10
441.7810636870335
 20
236.1489886560728
 30
0.0
 40
0.8
100
AcDbArc
 50
89.6669847969486
 51
262.9450940251619
  0
LINE
  5
3F33
330
1F
100
AcDbEntity
  8
Calque1
100
AcDbLine
 10
441.6828073406168
 20
235.3550455281418
 30
0.0
 11
441.6828073406168
 21
232.4424822918079
 31
0.0
  0
ARC
  5
3F34
330
1F
100
AcDbEntity
  8
Calque1
100
AcDbCircle
 10
441.7845509723674
 20
231.6489785215597
 30
0.0
 40
0.8
100
AcDbArc
 50
97.30663900945323
 51
270.3330151807478
  0
LINE
  5
3F35
330
1F
100
AcDbEntity
  8
Calque1
100
AcDbLine
 10
441.7857134300602
 20
230.8489920339951
 30
0.0
 11
444.6999012879232
 21
230.8489920339951
 31
0.0
  0
ARC
  5
3F36
330
1F
100
AcDbEntity
  8
Calque1
100
AcDbCircle
 10
444.7045509722584
 20
231.6489785216532
 30
0.0
 40
0.8
100
AcDbArc
 50
269.6669890145074
 51
82.94509244173816
  0
LINE
  5
3F37
330
1F
100
AcDbEntity
  8
Calque1
100
AcDbLine
 10
444.8028073406158
 20
232.4429216468686
 30
0.0
 11
444.8028073406176
 21
235.3554848885442
 31
0.0
  0
ARC
  5
3F38
330
1F
100
AcDbEntity
  8
Calque1
100
AcDbCircle
 10
444.7010636869263
 20
236.1489886559791
 30
0.0
 40
0.8
100
AcDbArc
 50
277.3066405936485
 51
90.33301097361125
  0
LINE
  5
3F39
330
1F
100
AcDbEntity
  8
Calque1
100
AcDbLine
 10
444.6999012880305
 20
236.9489751433887
 30
0.0
 11
441.7857134302566
 21
236.9489751433887
 31
0.0
  0
CIRCLE
  5
3F3A
330
1F
100
AcDbEntity
  8
Calque1
100
AcDbCircle
 10
438.2003489325406
 20
235.9511047744979
 30
0.0
 40
1.5
  0
LINE
  5
3F3B
330
1F
100
AcDbEntity
  8
Calque1
100
AcDbLine
 10
434.2739661034056
 20
235.9511047744968
 30
0.0
 11
434.2739661034056
 21
237.5561925246755
 31
0.0
  0
ARC
  5
3F3C
330
1F
100
AcDbEntity
  8
Calque1
100
AcDbCircle
 10
436.2739661034074
 20
237.5561925246734
 30
0.0
 40
2.000000000001818
100
AcDbArc
 50
134.9999999999911
 51
179.9999999999348
  0
LINE
  5
3F3D
330
1F
100
AcDbEntity
  8
Calque1
100
AcDbLine
 10
434.8597525410341
 20
238.9704060870483
 30
0.0
 11
440.829253950028
 21
244.9399074960402
 31
0.0
  0
LINE
  5
3F3E
330
1F
100
AcDbEntity
  8
Calque1
100
AcDbLine
 10
441.6828073406204
 20
244.5863541054473
 30
0.0
 11
441.6828073406223
 21
243.8128316340412
 31
0.0
  0
ARC
  5
3F3F
330
1F
100
AcDbEntity
  8
Calque1
100
AcDbCircle
 10
441.1828073406204
 20
244.5863541054473
 30
0.0
 40
0.5
100
AcDbArc
 50
0.0
 51
135.0000000000003
  0
ARC
  5
3F40
330
1F
100
AcDbEntity
  8
Calque1
100
AcDbCircle
 10
441.7845509723729
 20
243.019327863793
 30
0.0
 40
0.8
100
AcDbArc
 50
97.30663900945323
 51
270.3330151807478
  0
LINE
  5
3F41
330
1F
100
AcDbEntity
  8
Calque1
100
AcDbLine
 10
441.7857134300657
 20
242.2193413762284
 30
0.0
 11
444.6799012879282
 21
242.2193413762284
 31
0.0
  0
ARC
  5
3F42
330
1F
100
AcDbEntity
  8
Calque1
100
AcDbCircle
 10
444.6845509722634
 20
243.0193278638865
 30
0.0
 40
0.8
100
AcDbArc
 50
269.6669890145074
 51
82.94509244163318
  0
LINE
  5
3F43
330
1F
100
AcDbEntity
  8
Calque1
100
AcDbLine
 10
444.7828073406226
 20
243.813270989102
 30
0.0
 11
444.7828073406208
 21
244.8870549939686
 31
0.0
  0
LWPOLYLINE
  5
3F44
330
1F
100
AcDbEntity
  8
Calque1
100
AcDbPolyline
 90
       52
 70
     0
 43
0.0
 10
475.0916485778025
 20
235.9511047744968
 10
475.0916485778025
 20
234.3460170243182
 42
-0.1989123673796348
 10
474.505862140174
 20
232.9318034619453
 10
469.9757005594173
 20
228.4016418811905
 42
0.1989123673797085
 10
469.6828073406041
 20
227.6945351000038
 10
469.6828073406041
 20
220.088562981714
 42
0.1989123673796707
 10
470.2685937782307
 20
218.6743494193406
 10
474.6211961947255
 20
214.3217470028462
 42
-0.1989123673797291
 10
475.2069826323523
 20
212.9075334404724
 10
475.2069826323523
 20
209.6973579401158
 42
-0.1989123673796287
 10
474.6211961947255
 20
208.2831443777427
 10
472.3955204496769
 20
206.057468632695
 42
0.1989123673797
 10
471.8097340120484
 20
204.6432550703216
 10
471.8097340120484
 20
164.7229485296061
 42
0.198912367379658
 10
472.3955204496751
 20
163.3087349672328
 10
474.6211961947255
 20
161.0830592221816
 42
-0.1989123673797127
 10
475.2069826323523
 20
159.6688456598081
 10
475.2069826323523
 20
156.4586701594517
 42
-0.1989123673796407
 10
474.6211961947255
 20
155.0444565970788
 10
470.2685937782307
 20
150.6918541805862
 42
0.1989123673796939
 10
469.6828073406041
 20
149.2776406182124
 10
469.6828073406041
 20
113.9875102393425
 42
-0.4142135623730951
 10
467.682807340604
 20
111.9875102393425
 10
463.6469843798777
 20
111.9875102393425
 42
-0.2196847197508838
 10
462.1247961361614
 20
112.6902273285277
 10
455.4439014624612
 20
120.5293649946709
 42
0.4616492684700068
 10
453.9217132187468
 20
120.5293649946709
 10
447.2408185450468
 20
112.6902273285277
 42
-0.2196847197508804
 10
445.7186303013304
 20
111.9875102393425
 10
441.682807340604
 20
111.9875102393425
 42
-0.4142135623730951
 10
439.682807340604
 20
113.9875102393425
 10
439.682807340604
 20
149.2776406182124
 42
0.1989123673796961
 10
439.0970209029774
 20
150.6918541805862
 10
434.7444184864825
 20
155.0444565970795
 42
-0.1989123673796287
 10
434.1586320488558
 20
156.4586701594526
 10
434.1586320488558
 20
159.6688456598081
 42
-0.1989123673797106
 10
434.7444184864825
 20
161.0830592221814
 10
436.970094231533
 20
163.3087349672328
 42
0.1989123673796476
 10
437.5558806691596
 20
164.7229485296061
 10
437.5558806691596
 20
204.6432550703209
 42
0.1989123673796873
 10
436.970094231533
 20
206.0574686326945
 10
434.7444184864843
 20
208.2831443777422
 42
-0.1989123673796348
 10
434.1586320488558
 20
209.6973579401151
 10
434.1586320488558
 20
212.9075334404724
 42
-0.1989123673797261
 10
434.7444184864825
 20
214.3217470028462
 10
439.0970209029774
 20
218.6743494193406
 42
0.198912367379664
 10
439.682807340604
 20
220.0885629817137
 10
439.682807340604
 20
227.6945351000038
 42
0.1989123673797085
 10
439.3899141217907
 20
228.4016418811905
 10
434.8597525410341
 20
232.9318034619453
 42
-0.1989123673796348
 10
434.2739661034056
 20
234.3460170243182
 10
434.2739661034056
 20
235.9511047744968
  0
CIRCLE
  5
3F45
330
1F
100
AcDbEntity
  8
Calque1
100
AcDbCircle
 10
471.1652657486674
 20
235.9511047744979
 30
0.0
 40
1.5
  0
LINE
  5
3F46
330
1F
100
AcDbEntity
  8
Calque1
100
AcDbLine
 10
445.5381562937209
 20
245.3169351076635
 30
0.0
 11
450.4638055548721
 21
242.3910975494568
 31
0.0
  0
ARC
  5
3F47
330
1F
100
AcDbEntity
  8
Calque1
100
AcDbCircle
 10
445.2828073406208
 20
244.8870549939686
 30
0.0
 40
0.5
100
AcDbArc
 50
59.28967188851472
 51
180.0
  0
LINE
  5
3F48
330
1F
100
AcDbEntity
  8
Calque1
100
AcDbLine
 10
453.0172950858768
 20
241.6898986864071
 30
0.0
 11
454.682807340604
 21
241.6898986864071
 31
0.0
  0
ARC
  5
3F49
330
1F
100
AcDbEntity
  8
Calque1
100
AcDbCircle
 10
453.0172950858768
 20
246.6898986864071
 30
0.0
 40
5.0
100
AcDbArc
 50
239.2896718885147
 51
270.0
  0
LINE
  5
3F4A
330
1F
100
AcDbEntity
  8
Calque1
100
AcDbLine
 10
456.3483195953367
 20
241.6898986864087
 30
0.0
 11
454.6828073406095
 21
241.6898986864071
 31
0.0
  0
LINE
  5
3F4B
330
1F
100
AcDbEntity
  8
Calque1
100
AcDbLine
 10
475.0916485778189
 20
235.9511047745239
 30
0.0
 11
475.091648577817
 21
237.5561925247025
 31
0.0
  0
ARC
  5
3F4C
330
1F
100
AcDbEntity
  8
Calque1
100
AcDbCircle
 10
473.0916485778171
 20
237.556192524698
 30
0.0
 40
2.0
100
AcDbArc
 50
0.0000000001302755
 51
45.00000000013788
  0
LINE
  5
3F4D
330
1F
100
AcDbEntity
  8
Calque1
100
AcDbLine
 10
474.5058621401867
 20
238.9704060870747
 30
0.0
 11
468.5363607311837
 21
244.9399074960591
 31
0.0
  0
ARC
  5
3F4E
330
1F
100
AcDbEntity
  8
Calque1
100
AcDbCircle
 10
468.1828073405913
 20
244.586354105465
 30
0.0
 40
0.5
100
AcDbArc
 50
45.00000000011026
 51
180.0000000000912
  0
LINE
  5
3F4F
330
1F
100
AcDbEntity
  8
Calque1
100
AcDbLine
 10
463.8274583874872
 20
245.3169351076635
 30
0.0
 11
458.9018091263378
 21
242.391097549458
 31
0.0
  0
ARC
  5
3F50
330
1F
100
AcDbEntity
  8
Calque1
100
AcDbCircle
 10
456.3483195953331
 20
246.6898986864087
 30
0.0
 40
5.0
100
AcDbArc
 50
270.0
 51
300.7103281114853
  0
ARC
  5
3F51
330
1F
100
AcDbEntity
  8
Calque1
100
AcDbCircle
 10
464.0828073405873
 20
244.8870549939686
 30
0.0
 40
0.5
100
AcDbArc
 50
0.0
 51
120.7103281114703
  0
ARC
  5
3F52
330
1F
100
AcDbEntity
  8
Calque1
100
AcDbCircle
 10
467.5845509941782
 20
236.1489886560653
 30
0.0
 40
0.8
100
AcDbArc
 50
277.0549059748381
 51
90.33301520305139
  0
LINE
  5
3F53
330
1F
100
AcDbEntity
  8
Calque1
100
AcDbLine
 10
467.6828073405931
 20
235.3550455281343
 30
0.0
 11
467.6828073405913
 21
232.4424822918004
 31
0.0
  0
ARC
  5
3F54
330
1F
100
AcDbEntity
  8
Calque1
100
AcDbCircle
 10
467.5810637088407
 20
231.6489785215522
 30
0.0
 40
0.8
100
AcDbArc
 50
269.6669848192521
 51
82.69336099065187
  0
LINE
  5
3F55
330
1F
100
AcDbEntity
  8
Calque1
100
AcDbLine
 10
467.5799012511479
 20
230.8489920339876
 30
0.0
 11
464.6657133932849
 21
230.8489920339891
 31
0.0
  0
ARC
  5
3F56
330
1F
100
AcDbEntity
  8
Calque1
100
AcDbCircle
 10
464.6610637089497
 20
231.6489785216472
 30
0.0
 40
0.8
100
AcDbArc
 50
97.05490755826183
 51
270.3330109853884
  0
LINE
  5
3F57
330
1F
100
AcDbEntity
  8
Calque1
100
AcDbLine
 10
464.5628073405923
 20
232.4429216468629
 30
0.0
 11
464.5628073405923
 21
235.3554848885385
 31
0.0
  0
ARC
  5
3F58
330
1F
100
AcDbEntity
  8
Calque1
100
AcDbCircle
 10
464.6645509942855
 20
236.1489886559732
 30
0.0
 40
0.8
100
AcDbArc
 50
89.66698902628452
 51
262.6933594063515
  0
LINE
  5
3F59
330
1F
100
AcDbEntity
  8
Calque1
100
AcDbLine
 10
464.6657133931812
 20
236.9489751433828
 30
0.0
 11
467.5799012509551
 21
236.9489751433812
 31
0.0
  0
LINE
  5
3F5A
330
1F
100
AcDbEntity
  8
Calque1
100
AcDbLine
 10
467.6828073405822
 20
244.586354105468
 30
0.0
 11
467.6828073405822
 21
243.8128316340619
 31
0.0
  0
ARC
  5
3F5B
330
1F
100
AcDbEntity
  8
Calque1
100
AcDbCircle
 10
467.5810637088334
 20
243.0193278638135
 30
0.0
 40
0.8
100
AcDbArc
 50
269.6669848192521
 51
82.69336099065187
  0
LINE
  5
3F5C
330
1F
100
AcDbEntity
  8
Calque1
100
AcDbLine
 10
467.5799012511406
 20
242.2193413762489
 30
0.0
 11
464.6857133932781
 21
242.2193413762443
 31
0.0
  0
ARC
  5
3F5D
330
1F
100
AcDbEntity
  8
Calque1
100
AcDbCircle
 10
464.6810637089429
 20
243.0193278639024
 30
0.0
 40
0.8
100
AcDbArc
 50
97.05490755847186
 51
270.3330109855968
  0
LINE
  5
3F5E
330
1F
100
AcDbEntity
  8
Calque1
100
AcDbLine
 10
464.5828073405819
 20
243.8132709891176
 30
0.0
 11
464.5828073405819
 21
244.8870549939843
 31
0.0
  0
ARC
  5
3F5F
330
1F
100
AcDbEntity
  8
Calque1
100
AcDbCircle
 10
453.2148608306734
 20
226.16110072017
 30
0.0
 40
1.1
100
AcDbArc
 50
90.00000000010421
 51
270.0
  0
ARC
  5
3F60
330
1F
100
AcDbEntity
  8
Calque1
100
AcDbCircle
 10
456.1507538505347
 20
226.16110072017
 30
0.0
 40
1.1
100
AcDbArc
 50
270.0
 51
90.0
  0
LINE
  5
3F61
330
1F
100
AcDbEntity
  8
Calque1
100
AcDbLine
 10
453.2148608306734
 20
227.2611007201722
 30
0.0
 11
456.1507538505347
 21
227.2611007201758
 31
0.0
  0
LINE
  5
3F62
330
1F
100
AcDbEntity
  8
Calque1
100
AcDbLine
 10
456.1507538505347
 20
225.0611007201714
 30
0.0
 11
453.2148608306697
 21
225.0611007201714
 31
0.0
  0
ARC
  5
3F63
330
1F
100
AcDbEntity
  8
Calque1
100
AcDbCircle
 10
456.1507538505347
 20
202.982992484669
 30
0.0
 40
1.1
100
AcDbArc
 50
270.0
 51
89.99999999989578
  0
ARC
  5
3F64
330
1F
100
AcDbEntity
  8
Calque1
100
AcDbCircle
 10
453.2148608306697
 20
202.982992484669
 30
0.0
 40
1.1
100
AcDbArc
 50
90.0
 51
270.0
  0
LINE
  5
3F65
330
1F
100
AcDbEntity
  8
Calque1
100
AcDbLine
 10
456.1507538505347
 20
204.0829924846712
 30
0.0
 11
453.2148608306734
 21
204.0829924846748
 31
0.0
  0
LINE
  5
3F66
330
1F
100
AcDbEntity
  8
Calque1
100
AcDbLine
 10
453.2148608306697
 20
201.8829924846705
 30
0.0
 11
456.1507538505347
 21
201.8829924846705
 31
0.0
  0
CIRCLE
  5
3F67
330
1F
100
AcDbEntity
  8
Calque1
100
AcDbCircle
 10
439.3407249251949
 20
211.3024456902949
 30
0.0
 40
3.0
  0
CIRCLE
  5
3F68
330
1F
100
AcDbEntity
  8
Calque1
100
AcDbCircle
 10
470.0248897560132
 20
211.3024456902949
 30
0.0
 40
3.0
  0
LWPOLYLINE
  5
3F69
330
1F
100
AcDbEntity
  8
Calque1
100
AcDbPolyline
 90
        8
 70
     1
 43
0.0
 10
446.5939756539182
 20
155.4251816960386
 10
448.0939756539182
 20
155.4251816960386
 42
-0.4142135623730951
 10
449.0939756539183
 20
154.4251816960386
 10
449.0939756539183
 20
131.4251816960386
 42
-0.4142135623730951
 10
448.0939756539182
 20
130.4251816960386
 10
446.5939756539182
 20
130.4251816960386
 42
-0.4142135623730951
 10
445.5939756539183
 20
131.4251816960386
 10
445.5939756539183
 20
154.4251816960386
 42
-0.4142135623730951
  0
LWPOLYLINE
  5
3F6A
330
1F
100
AcDbEntity
  8
Calque1
100
AcDbPolyline
 90
        8
 70
     1
 43
0.0
 10
462.7716390272898
 20
155.4251816960386
 10
461.2716390272899
 20
155.4251816960386
 42
0.4142135623730951
 10
460.2716390272899
 20
154.4251816960386
 10
460.2716390272899
 20
131.4251816960386
 42
0.4142135623730951
 10
461.2716390272899
 20
130.4251816960386
 10
462.7716390272898
 20
130.4251816960386
 42
0.4142135623730951
 10
463.7716390272898
 20
131.4251816960386
 10
463.7716390272898
 20
154.4251816960386
 42
0.4142135623730951
  0
LWPOLYLINE
  5
3F6B
330
1F
100
AcDbEntity
  8
Calque1
100
AcDbPolyline
 90
        8
 70
     1
 43
0.0
 10
443.4736462627689
 20
204.9001615971665
 10
444.9736462627688
 20
204.9001615971665
 42
-0.4142135623730951
 10
445.9736462627688
 20
203.9001615971665
 10
445.9736462627688
 20
186.6879772742054
 42
-0.4142135623730951
 10
444.9736462627688
 20
185.6879772742054
 10
443.4736462627689
 20
185.6879772742054
 42
-0.4142135623730951
 10
442.4736462627688
 20
186.6879772742054
 10
442.4736462627688
 20
203.9001615971665
 42
-0.4142135623730951
  0
LWPOLYLINE
  5
3F6C
330
1F
100
AcDbEntity
  8
Calque1
100
AcDbPolyline
 90
        8
 70
     1
 43
0.0
 10
443.4736462627689
 20
183.6782263257214
 10
444.9736462627688
 20
183.6782263257214
 42
-0.4142135623730951
 10
445.9736462627688
 20
182.6782263257214
 10
445.9736462627688
 20
165.0490949164632
 42
-0.4142135623730951
 10
444.9736462627688
 20
164.0490949164632
 10
443.4736462627689
 20
164.0490949164632
 42
-0.4142135623730951
 10
442.4736462627688
 20
165.0490949164632
 10
442.4736462627688
 20
182.6782263257214
 42
-0.4142135623730951
  0
LINE
  5
3F6D
330
1F
100
AcDbEntity
  8
Calque1
100
AcDbLine
 10
450.514647011566
 20
193.8553803509421
 30
0.0
 11
452.9310162144838
 21
198.3076381252722
 31
0.0
  0
ARC
  5
3F6E
330
1F
100
AcDbEntity
  8
Calque1
100
AcDbCircle
 10
451.3935476789311
 20
193.3783755114448
 30
0.0
 40
1.0
100
AcDbArc
 50
151.5100346143231
 51
190.9618143253151
  0
LINE
  5
3F6F
330
1F
100
AcDbEntity
  8
Calque1
100
AcDbLine
 10
458.9245146656075
 20
193.8553803509423
 30
0.0
 11
456.5081454626898
 21
198.3076381252726
 31
0.0
  0
ARC
  5
3F70
330
1F
100
AcDbEntity
  8
Calque1
100
AcDbCircle
 10
455.6292447953246
 20
197.8306332857751
 30
0.0
 40
1.0
100
AcDbArc
 50
28.48996538567689
 51
90.0
  0
LWPOLYLINE
  5
3F71
330
1F
100
AcDbEntity
  8
Calque1
100
AcDbPolyline
 90
        8
 70
     1
 43
0.0
 10
465.8919684184393
 20
204.9001615971665
 10
464.3919684184393
 20
204.9001615971665
 42
0.4142135623730951
 10
463.3919684184393
 20
203.9001615971665
 10
463.3919684184393
 20
186.6879772742054
 42
0.4142135623730951
 10
464.3919684184393
 20
185.6879772742054
 10
465.8919684184393
 20
185.6879772742054
 42
0.4142135623730951
 10
466.8919684184393
 20
186.6879772742054
 10
466.8919684184393
 20
203.9001615971665
 42
0.4142135623730951
  0
LWPOLYLINE
  5
3F72
330
1F
100
AcDbEntity
  8
Calque1
100
AcDbPolyline
 90
        8
 70
     1
 43
0.0
 10
465.8919684184393
 20
183.6782263257214
 10
464.3919684184393
 20
183.6782263257214
 42
0.4142135623730951
 10
463.3919684184393
 20
182.6782263257214
 10
463.3919684184393
 20
165.0490949164632
 42
0.4142135623730951
 10
464.3919684184393
 20
164.0490949164632
 10
465.8919684184393
 20
164.0490949164632
 42
0.4142135623730951
 10
466.8919684184393
 20
165.0490949164632
 10
466.8919684184393
 20
182.6782263257214
 42
0.4142135623730951
  0
LWPOLYLINE
  5
3F73
330
1F
100
AcDbEntity
  8
Calque1
100
AcDbPolyline
 90
        6
 70
     0
 43
0.0
 10
454.7195808385867
 20
185.8974855686579
 10
456.4029851083168
 20
185.8974855686579
 42
-0.4735303252068692
 10
457.3834081368886
 20
184.7005828387432
 10
456.5940969474931
 20
180.7704246985904
 42
-0.3572845877602937
 10
455.6136739189214
 20
179.9673274285051
 10
454.7195808385867
 20
179.9673274285051
  0
LWPOLYLINE
  5
3F74
330
1F
100
AcDbEntity
  8
Calque1
100
AcDbPolyline
 90
        8
 70
     1
 43
0.0
 10
453.9328073406022
 20
157.8904664290112
 10
455.4328073406022
 20
157.8904664290112
 42
-0.4142135623730951
 10
456.4328073406023
 20
156.8904664290112
 10
456.432807340604
 20
151.6300164767508
 42
-0.4142135623730951
 10
455.4328073406041
 20
150.6300164767508
 10
453.932807340604
 20
150.6300164767508
 42
-0.4142135623730951
 10
452.932807340604
 20
151.6300164767508
 10
452.9328073406023
 20
156.8904664290112
 42
-0.4142135623730951
  0
LWPOLYLINE
  5
3F75
330
1F
100
AcDbEntity
  8
Calque1
100
AcDbPolyline
 90
        8
 70
     1
 43
0.0
 10
453.932807340604
 20
138.893780702574
 10
455.4328073406041
 20
138.893780702574
 42
-0.4142135623730951
 10
456.432807340604
 20
137.893780702574
 10
456.4328073406058
 20
132.6333307503137
 42
-0.4142135623730951
 10
455.4328073406058
 20
131.6333307503137
 10
453.9328073406059
 20
131.6333307503137
 42
-0.4142135623730951
 10
452.9328073406059
 20
132.6333307503137
 10
452.932807340604
 20
137.893780702574
 42
-0.4142135623730951
  0
LWPOLYLINE
  5
3F76
330
1F
100
AcDbEntity
  8
Calque1
100
AcDbPolyline
 90
        8
 70
     1
 43
0.0
 10
453.9328073406022
 20
177.6255579056796
 10
455.4328073406022
 20
177.6255579056796
 42
-0.4142135623730951
 10
456.4328073406023
 20
176.6255579056796
 10
456.432807340604
 20
171.3651079534193
 42
-0.4142135623730951
 10
455.4328073406041
 20
170.3651079534193
 10
453.932807340604
 20
170.3651079534193
 42
-0.4142135623730951
 10
452.932807340604
 20
171.3651079534193
 10
452.9328073406023
 20
176.6255579056796
 42
-0.4142135623730951
  0
LWPOLYLINE
  5
3F77
330
1F
100
AcDbEntity
  8
Calque1
100
AcDbPolyline
 90
        8
 70
     1
 43
0.0
 10
453.9328073406022
 20
165.8346502665208
 10
455.4328073406022
 20
165.8346502665208
 42
-0.4142135623730951
 10
456.4328073406023
 20
164.8346502665208
 10
456.432807340604
 20
163.8348140675098
 42
-0.4142135623730951
 10
455.4328073406041
 20
162.8348140675098
 10
453.932807340604
 20
162.8348140675098
 42
-0.4142135623730951
 10
452.932807340604
 20
163.8348140675098
 10
452.9328073406023
 20
164.8346502665208
 42
-0.4142135623730951
  0
LWPOLYLINE
  5
3F78
330
1F
100
AcDbEntity
  8
Calque1
100
AcDbPolyline
 90
        6
 70
     0
 43
0.0
 10
454.7195808385867
 20
185.8974855686579
 10
453.0361765688566
 20
185.8974855686579
 42
0.4735303252068692
 10
452.055753540285
 20
184.7005828387432
 10
452.8450647296804
 20
180.7704246985904
 42
0.3572845877602937
 10
453.8254877582521
 20
179.9673274285051
 10
454.7195808385867
 20
179.9673274285051
  0
LINE
  5
3F79
330
1F
100
AcDbEntity
  8
Calque1
100
AcDbLine
 10
452.0750636026432
 20
188.8597616578636
 30
0.0
 11
457.3640980745303
 21
188.8597616578636
 31
0.0
  0
ARC
  5
3F7A
330
1F
100
AcDbEntity
  8
Calque1
100
AcDbCircle
 10
452.0750636026432
 20
189.8597616578636
 30
0.0
 40
1.0
100
AcDbArc
 50
190.9618143253151
 51
270.0
  0
LINE
  5
3F7B
330
1F
100
AcDbEntity
  8
Calque1
100
AcDbLine
 10
450.4117935458407
 20
193.1882207792937
 30
0.0
 11
451.0933094695529
 21
189.6696069257125
 31
0.0
  0
ARC
  5
3F7C
330
1F
100
AcDbEntity
  8
Calque1
100
AcDbCircle
 10
458.0456139982425
 20
193.3783755114448
 30
0.0
 40
1.0
100
AcDbArc
 50
349.0381856746997
 51
28.48996538568894
  0
ARC
  5
3F7D
330
1F
100
AcDbEntity
  8
Calque1
100
AcDbCircle
 10
457.3640980745303
 20
189.8597616578636
 30
0.0
 40
1.0
100
AcDbArc
 50
270.0
 51
349.0381856746997
  0
LINE
  5
3F7E
330
1F
100
AcDbEntity
  8
Calque1
100
AcDbLine
 10
459.0273681313329
 20
193.1882207792937
 30
0.0
 11
458.3458522076207
 21
189.6696069257125
 31
0.0
  0
LINE
  5
3F7F
330
1F
100
AcDbEntity
  8
Calque1
100
AcDbLine
 10
453.8099168818489
 20
198.8306332857751
 30
0.0
 11
455.6292447953246
 21
198.8306332857751
 31
0.0
  0
ARC
  5
3F80
330
1F
100
AcDbEntity
  8
Calque1
100
AcDbCircle
 10
453.8099168818489
 20
197.8306332857751
 30
0.0
 40
1.0
100
AcDbArc
 50
90.0
 51
151.5100346143231
  0
LWPOLYLINE
  5
3F81
330
1F
100
AcDbEntity
  8
Calque1
100
AcDbPolyline
 90
        8
 70
     1
 43
0.0
 10
453.9328073406022
 20
147.0739184623762
 10
455.4328073406022
 20
147.0739184623762
 42
-0.4142135623730951
 10
456.4328073406023
 20
146.0739184623762
 10
456.432807340604
 20
145.0740822633652
 42
-0.4142135623730951
 10
455.4328073406041
 20
144.0740822633652
 10
453.932807340604
 20
144.0740822633652
 42
-0.4142135623730951
 10
452.932807340604
 20
145.0740822633652
 10
452.9328073406023
 20
146.0739184623762
 42
-0.4142135623730951
  0
LINE
  5
3F88
330
1F
100
AcDbEntity
  8
Calque1
100
AcDbLine
 10
435.3547272878646
 20
238.4754313402177
 30
0.0
 11
441.6482657317785
 21
244.7689697841294
 31
0.0
  0
ARC
  5
3F89
330
1F
100
AcDbEntity
  8
Calque1
100
AcDbCircle
 10
436.2739661034074
 20
237.5561925246734
 30
0.0
 40
1.300000000001819
100
AcDbArc
 50
134.9999999999911
 51
179.9999999999348
  0
LWPOLYLINE
  5
3F8A
330
1F
100
AcDbEntity
  8
Calque1
100
AcDbPolyline
 90
       52
 70
     0
 43
0.0
 10
474.3916485778025
 20
235.9511047744968
 10
474.3916485778025
 20
234.3460170243182
 42
-0.1989123673796399
 10
474.0108873933439
 20
233.4267782087763
 10
469.4807258125869
 20
228.8966166280212
 42
0.198912367379715
 10
468.982807340604
 20
227.6945351000036
 10
468.982807340604
 20
220.088562981714
 42
0.1989123673796719
 10
469.7736190314
 20
218.1793746725101
 10
474.126221447895
 20
213.8267722560156
 42
-0.1989123673797289
 10
474.5069826323522
 20
212.9075334404727
 10
474.5069826323522
 20
209.6973579401158
 42
-0.1989123673796305
 10
474.1262214478949
 20
208.7781191245732
 10
471.9005457028464
 20
206.5524433795256
 42
0.1989123673797009
 10
471.1097340120485
 20
204.6432550703222
 10
471.1097340120485
 20
164.7229485296061
 42
0.1989123673796573
 10
471.9005457028444
 20
162.8137602204023
 10
474.1262214478949
 20
160.5880844753511
 42
-0.1989123673797149
 10
474.5069826323522
 20
159.6688456598083
 10
474.5069826323522
 20
156.4586701594517
 42
-0.1989123673796406
 10
474.126221447895
 20
155.5394313439093
 10
469.7736190314002
 20
151.1868289274169
 42
0.1989123673796889
 10
468.982807340604
 20
149.2776406182121
 10
468.982807340604
 20
113.9875102393425
 42
-0.4142135623730969
 10
467.682807340604
 20
112.6875102393425
 10
463.6469843798777
 20
112.6875102393425
 42
-0.2196847197508831
 10
462.657562021462
 20
113.1442763473129
 10
455.976667347762
 20
120.9834140134561
 42
0.4616492684700108
 10
453.3889473334461
 20
120.983414013456
 10
446.708052659746
 20
113.1442763473129
 42
-0.2196847197508805
 10
445.7186303013305
 20
112.6875102393426
 10
441.682807340604
 20
112.6875102393425
 42
-0.4142135623730969
 10
440.3828073406041
 20
113.9875102393425
 10
440.3828073406041
 20
149.2776406182124
 42
0.1989123673797011
 10
439.591995649808
 20
151.1868289274167
 10
435.239393233313
 20
155.5394313439101
 42
-0.1989123673796295
 10
434.8586320488559
 20
156.4586701594525
 10
434.8586320488559
 20
159.6688456598081
 42
-0.1989123673797162
 10
435.2393932333131
 20
160.5880844753509
 10
437.4650689783637
 20
162.8137602204023
 42
0.1989123673796488
 10
438.2558806691597
 20
164.7229485296062
 10
438.2558806691597
 20
204.6432550703209
 42
0.1989123673796874
 10
437.4650689783637
 20
206.552443379525
 10
435.2393932333149
 20
208.7781191245729
 42
-0.1989123673796398
 10
434.8586320488559
 20
209.6973579401159
 10
434.8586320488559
 20
212.9075334404724
 42
-0.1989123673797251
 10
435.2393932333132
 20
213.8267722560157
 10
439.5919956498079
 20
218.17937467251
 42
0.1989123673796644
 10
440.3828073406041
 20
220.0885629817138
 10
440.3828073406041
 20
227.6945351000038
 42
0.1989123673797147
 10
439.8848888686213
 20
228.896616628021
 10
435.3547272878646
 20
233.4267782087759
 42
-0.1989123673796398
 10
434.9739661034056
 20
234.3460170243189
 10
434.9739661034056
 20
235.9511047744968
  0
LINE
  5
3F8B
330
1F
100
AcDbEntity
  8
Calque1
100
AcDbLine
 10
434.9739661034056
 20
235.9511047744968
 30
0.0
 11
434.9739661034056
 21
237.5561925246755
 31
0.0
  0
LINE
  5
3F8C
330
1F
100
AcDbEntity
  8
Calque1
100
AcDbLine
 10
474.3916485778188
 20
235.9511047745231
 30
0.0
 11
474.3916485778171
 21
237.5561925247017
 31
0.0
  0
ARC
  5
3F8D
330
1F
100
AcDbEntity
  8
Calque1
100
AcDbCircle
 10
473.0916485778171
 20
237.556192524698
 30
0.0
 40
1.3
100
AcDbArc
 50
0.0000000001302755
 51
45.00000000013788
  0
LINE
  5
3F8E
330
1F
100
AcDbEntity
  8
Calque1
100
AcDbLine
 10
474.0108873933569
 20
238.4754313402433
 30
0.0
 11
467.7173489494333
 21
244.7689697841474
 31
0.0
  0
ENDSEC
  0
SECTION
  2
OBJECTS
  0
DICTIONARY
  5
C
330
0
100
AcDbDictionary
281
     1
  3
ACAD_CIP_PREVIOUS_PRODUCT_INFO
350
216
  3
ACAD_COLOR
350
6B
  3
ACAD_DETAILVIEWSTYLE
350
21B
  3
ACAD_GROUP
350
D
  3
ACAD_IMAGE_DICT
350
1984
  3
ACAD_LAYOUT
350
1A
  3
ACAD_MATERIAL
350
6A
  3
ACAD_MLEADERSTYLE
350
12D
  3
ACAD_MLINESTYLE
350
17
  3
ACAD_PLOTSETTINGS
350
19
  3
ACAD_PLOTSTYLENAME
350
E
  3
ACAD_SCALELIST
350
10C
  3
ACAD_SECTIONVIEWSTYLE
350
219
  3
ACAD_TABLESTYLE
350
7E
  3
ACAD_VISUALSTYLE
350
EF
  3
ACDB_RECOMPOSE_DATA
350
3FDA
  3
AcDbVariableDictionary
350
5E
  3
AcDsDecomposeData
350
3FE0
  3
AEC_PROPERTY_SET_DEFS
350
2AFB
  3
MCS_STREAM_DICT
350
A5C
  0
SUN
  5
A5F
330
EA
100
AcDbSun
 90
        1
290
     1
 63
     7
421
 16777215
 40
1.0
291
     1
 91
  2455826
 92
 54000000
292
     0
 70
     0
 71
   256
280
     1
1001
ACAD
1000
AcDbSavedByObjectVersion
1070
     0
1000
AcDbSavedByObjectVersion
1070
     0
1000
AcDbSavedByObjectVersion
1070
     0
1000
AcDbSavedByObjectVersion
1070
     0
1000
AcDbSavedByObjectVersion
1070
     0
1000
AcDbSavedByObjectVersion
1070
     0
1000
AcDbSavedByObjectVersion
1070
     0
1000
AcDbSavedByObjectVersion
1070
     0
1000
AcDbSavedByObjectVersion
1070
     0
1000
AcDbSavedByObjectVersion
1070
     0
1000
AcDbSavedByObjectVersion
1070
     0
1000
AcDbSavedByObjectVersion
1070
     0
1000
AcDbSavedByObjectVersion
1070
     0
1000
AcDbSavedByObjectVersion
1070
     0
1000
AcDbSavedByObjectVersion
1070
     0
1000
AcDbSavedByObjectVersion
1070
     0
1000
AcDbSavedByObjectVersion
1070
     0
1000
AcDbSavedByObjectVersion
1070
     0
1000
AcDbSavedByObjectVersion
1070
     0
1000
AcDbSavedByObjectVersion
1070
     0
1000
AcDbSavedByObjectVersion
1070
     0
1000
AcDbSavedByObjectVersion
1070
     0
  0
DICTIONARY
  5
1FF
330
2
100
AcDbDictionary
280
     1
281
     1
  3
ACAD_LAYERSTATES
360
200
  0
DICTIONARY
  5
A60
330
1F
100
AcDbDictionary
280
     1
281
     1
  3
ACAD_SORTENTS
360
A61
  0
DICTIONARY
  5
3145
330
3090
100
AcDbDictionary
280
     1
281
     1
  0
DICTIONARY
  5
1EBD
330
B0A
100
AcDbDictionary
280
     1
281
     1
  3
ACAD_MTEXT_2008_RT
360
3FC2
  0
DICTIONARY
  5
1EC1
330
B10
100
AcDbDictionary
280
     1
281
     1
  3
ACAD_MTEXT_2008_RT
360
3FC3
  0
DICTIONARY
  5
1EC3
330
C0B
100
AcDbDictionary
280
     1
281
     1
  3
ACAD_MTEXT_2008_RT
360
3FC4
  0
DICTIONARY
  5
1EC5
330
D55
100
AcDbDictionary
280
     1
281
     1
  3
ACAD_MTEXT_2008_RT
360
3FC5
  0
DICTIONARY
  5
1EC7
330
DB9
100
AcDbDictionary
280
     1
281
     1
  3
ACAD_MTEXT_2008_RT
360
3FC6
  0
DICTIONARY
  5
1EC9
330
E14
100
AcDbDictionary
280
     1
281
     1
  3
ACAD_MTEXT_2008_RT
360
3FC7
  0
DICTIONARY
  5
1ECB
330
E16
100
AcDbDictionary
280
     1
281
     1
  3
ACAD_MTEXT_2008_RT
360
3FC8
  0
DICTIONARY
  5
1ECF
330
E18
100
AcDbDictionary
280
     1
281
     1
  3
ACAD_MTEXT_2008_RT
360
3FC9
  0
DICTIONARY
  5
1ED1
330
E19
100
AcDbDictionary
280
     1
281
     1
  3
ACAD_MTEXT_2008_RT
360
3FCA
  0
DICTIONARY
  5
1ED3
330
E1B
100
AcDbDictionary
280
     1
281
     1
  3
ACAD_MTEXT_2008_RT
360
3FCB
  0
DICTIONARY
  5
1ED5
330
E1C
100
AcDbDictionary
280
     1
281
     1
  3
ACAD_MTEXT_2008_RT
360
3FCC
  0
DICTIONARY
  5
1ED7
330
E1D
100
AcDbDictionary
280
     1
281
     1
  3
ACAD_MTEXT_2008_RT
360
3FCD
  0
DICTIONARY
  5
1ED9
330
17A5
100
AcDbDictionary
280
     1
281
     1
  3
ACAD_MTEXT_2008_RT
360
3FCE
  0
DICTIONARY
  5
1EDB
330
184A
100
AcDbDictionary
280
     1
281
     1
  3
ACAD_MTEXT_2008_RT
360
3FCF
  0
DICTIONARY
  5
1EDF
330
1E3B
100
AcDbDictionary
280
     1
281
     1
  3
ACAD_MTEXT_2008_RT
360
3FD0
  0
DICTIONARY
  5
1EE1
330
1E3C
100
AcDbDictionary
280
     1
281
     1
  3
ACAD_MTEXT_2008_RT
360
3FD1
  0
DICTIONARY
  5
2B0C
330
2B0B
100
AcDbDictionary
280
     1
281
     1
  3
ACAD_MTEXT_2008_RT
360
3FD2
  0
DICTIONARY
  5
2B14
330
2B13
100
AcDbDictionary
280
     1
281
     1
  3
ACAD_DIMASSOC
360
2B15
  0
DICTIONARY
  5
2B17
330
2B16
100
AcDbDictionary
280
     1
281
     1
  3
ACAD_DIMASSOC
360
2B18
  0
DICTIONARY
  5
2B1A
330
2B19
100
AcDbDictionary
280
     1
281
     1
  3
ACAD_DIMASSOC
360
2B1B
  0
DICTIONARY
  5
2B1F
330
2B1E
100
AcDbDictionary
280
     1
281
     1
  3
ACAD_MTEXT_2008_RT
360
3FD3
  0
DICTIONARY
  5
2B21
330
2B20
100
AcDbDictionary
280
     1
281
     1
  3
ACAD_MTEXT_2008_RT
360
3FD4
  0
DICTIONARY
  5
2B23
330
2B22
100
AcDbDictionary
280
     1
281
     1
  3
ACAD_DIMASSOC
360
2B24
  0
DICTIONARY
  5
2B26
330
2B25
100
AcDbDictionary
280
     1
281
     1
  3
ACAD_DIMASSOC
360
2B27
  0
DICTIONARY
  5
2BAF
330
2BA0
100
AcDbDictionary
280
     1
281
     1
  3
ACAD_DIMASSOC
360
2BBB
  0
DICTIONARY
  5
2C0F
330
2BC6
100
AcDbDictionary
280
     1
281
     1
  3
ACAD_MTEXT_2008_RT
360
3FD5
  0
DICTIONARY
  5
2EC6
330
2EC5
100
AcDbDictionary
280
     1
281
     1
  3
ACAD_MTEXT_2008_RT
360
3FD6
  0
DICTIONARY
  5
2ECA
330
2EC9
100
AcDbDictionary
280
     1
281
     1
  3
ACAD_MTEXT_2008_RT
360
3FD7
  0
DICTIONARY
  5
33EE
330
33ED
100
AcDbDictionary
280
     1
281
     1
  3
ACAD_MTEXT_2008_RT
360
3FD8
  0
DICTIONARY
  5
3B40
330
3B3F
100
AcDbDictionary
280
     1
281
     1
  3
ACAD_MTEXT_2008_RT
360
3FD9
  0
XRECORD
  5
216
102
{ACAD_REACTORS
330
C
102
}
330
C
100
AcDbXrecord
280
     1
300
ACDLT
300
2020
300

  0
DICTIONARY
  5
6B
102
{ACAD_REACTORS
330
C
102
}
330
C
100
AcDbDictionary
281
     1
  0
DICTIONARY
  5
21B
102
{ACAD_REACTORS
330
C
102
}
330
C
100
AcDbDictionary
281
     1
  3
Metric50
350
21C
  0
DICTIONARY
  5
D
102
{ACAD_REACTORS
330
C
102
}
330
C
100
AcDbDictionary
281
     1
  0
DICTIONARY
  5
1984
102
{ACAD_REACTORS
330
C
102
}
330
C
100
AcDbDictionary
281
     1
  0
DICTIONARY
  5
1A
102
{ACAD_REACTORS
330
C
102
}
330
C
100
AcDbDictionary
281
     1
  3
Model
350
22
  3
Présentation1
350
D3
  3
Présentation2
350
D7
  0
DICTIONARY
  5
6A
102
{ACAD_REACTORS
330
C
102
}
330
C
100
AcDbDictionary
281
     1
  3
ByBlock
350
ED
  3
ByLayer
350
EC
  3
Global
350
EE
  0
DICTIONARY
  5
12D
102
{ACAD_REACTORS
330
C
102
}
330
C
100
AcDbDictionary
281
     1
  3
Annotatif
350
13B
  3
Standard
350
12E
  0
DICTIONARY
  5
17
102
{ACAD_REACTORS
330
C
102
}
330
C
100
AcDbDictionary
281
     1
  3
Standard
350
18
  0
DICTIONARY
  5
19
102
{ACAD_REACTORS
330
C
102
}
330
C
100
AcDbDictionary
281
     1
  0
ACDBDICTIONARYWDFLT
  5
E
102
{ACAD_REACTORS
330
C
102
}
330
C
100
AcDbDictionary
281
     1
  3
Normal
350
F
100
AcDbDictionaryWithDefault
340
F
  0
DICTIONARY
  5
10C
102
{ACAD_REACTORS
330
C
102
}
330
C
100
AcDbDictionary
281
     1
  3
A0
350
10D
  3
A1
350
1BE
  3
A2
350
1BF
  3
A3
350
1C0
  3
A4
350
1C1
  3
A5
350
1C2
  3
A6
350
1C3
  3
A7
350
1C4
  3
A8
350
1C5
  3
A9
350
1C6
  3
B0
350
1C7
  3
B1
350
1C8
  3
B2
350
1C9
  3
B3
350
1CA
  3
B4
350
1CB
  3
B5
350
1CC
  3
B6
350
1CD
  0
DICTIONARY
  5
219
102
{ACAD_REACTORS
330
C
102
}
330
C
100
AcDbDictionary
281
     1
  3
Metric50
350
21A
  0
DICTIONARY
  5
7E
102
{ACAD_REACTORS
330
C
102
}
330
C
100
AcDbDictionary
281
     1
  3
Standard
350
7F
  0
DICTIONARY
  5
EF
102
{ACAD_REACTORS
330
C
102
}
330
C
100
AcDbDictionary
281
     1
  3
2dWireframe
350
F5
  3
Basic
350
F4
  3
Brighten
350
FB
  3
ColorChange
350
FF
  3
Conceptual
350
F8
  3
Dim
350
FA
  3
EdgeColorOff
350
1E6
  3
Facepattern
350
FE
  3
Flat
350
F0
  3
FlatWithEdges
350
F1
  3
Gouraud
350
F2
  3
GouraudWithEdges
350
F3
  3
Hidden
350
F7
  3
JitterOff
350
1E4
  3
Linepattern
350
FD
  3
OverhangOff
350
1E5
  3
Realistic
350
F9
  3
Shaded
350
1F3
  3
Shaded with edges
350
1F2
  3
Shades of Gray
350
1EF
  3
Sketchy
350
1F0
  3
Thicken
350
FC
  3
Wireframe
350
F6
  3
X-Ray
350
1F1
  0
XRECORD
  5
3FDA
102
{ACAD_REACTORS
330
C
102
}
330
C
100
AcDbXrecord
280
     1
 90
        1
330
7F
330
B0A
330
B10
330
C0B
330
D55
330
DB9
330
E14
330
E16
330
E18
330
E19
330
E1B
330
E1C
330
E1D
330
17A5
330
184A
330
1E3B
330
1E3C
330
2B0B
330
2B1E
330
2B20
330
2BC6
330
2EC5
330
2EC9
330
33ED
330
3B3F
  0
DICTIONARY
  5
5E
102
{ACAD_REACTORS
330
C
102
}
330
C
100
AcDbDictionary
281
     1
  3
CANNOSCALE
350
146
  3
CENTEREXE
350
259
  3
CENTERLTYPEFILE
350
25A
  3
CMLEADERSTYLE
350
145
  3
CTABLESTYLE
350
84
  3
CVIEWDETAILSTYLE
350
227
  3
CVIEWSECTIONSTYLE
350
228
  3
DIMASSOC
350
5F
  3
HIDETEXT
350
63
  3
LAYEREVAL
350
1AE
  3
LAYERNOTIFY
350
1AF
  0
DICTIONARY
  5
3FE0
102
{ACAD_REACTORS
330
C
102
}
330
C
100
AcDbDictionary
281
     1
  3
AcDsRecords
350
3FE2
  3
AcDsSchemas
350
3FE1
1001
ACAD
1070
     2
  0
DICTIONARY
  5
2AFB
102
{ACAD_REACTORS
330
C
102
}
330
C
100
AcDbDictionary
281
     1
  0
DICTIONARY
  5
A5C
102
{ACAD_REACTORS
330
C
102
}
330
C
100
AcDbDictionary
281
     1
  3
MC_VERSION_DATA
350
1774
  3
MCS_DOCUMENT_ID
350
A5D
  3
MCS_PARAMS_DATA
350
E1E
  0
DICTIONARY
  5
200
102
{ACAD_REACTORS
330
1FF
102
}
330
1FF
100
AcDbDictionary
281
     1
  0
SORTENTSTABLE
  5
A61
102
{ACAD_REACTORS
330
A60
102
}
330
A60
100
AcDbSortentsTable
330
1F
331
1E3B
  5
1E7B
331
1E3C
  5
1E7C
331
253D
  5
253E
331
253E
  5
2540
331
253F
  5
2541
331
2540
  5
2542
331
2541
  5
2544
331
2542
  5
2546
331
2543
  5
2548
331
2544
  5
254A
331
2545
  5
254C
331
2546
  5
254D
331
2547
  5
254E
331
2548
  5
254F
331
2549
  5
2550
331
254A
  5
2551
331
254B
  5
2552
331
254C
  5
2554
331
254E
  5
2559
331
254F
  5
255C
331
2551
  5
255D
331
2552
  5
255F
331
2555
  5
2565
331
2556
  5
2569
331
2559
  5
256E
331
255A
  5
2570
331
255E
  5
2571
331
255F
  5
2573
331
2560
  5
2593
331
2561
  5
2595
331
2562
  5
2596
331
2563
  5
2597
331
2564
  5
2598
331
2565
  5
259A
331
2566
  5
259B
331
2567
  5
259C
331
2568
  5
259D
331
2569
  5
259F
331
256A
  5
25A1
331
256B
  5
25A2
331
256C
  5
25A3
331
256D
  5
25A4
331
256E
  5
25A5
331
256F
  5
25A7
331
2570
  5
25A9
331
2571
  5
2694
331
2572
  5
2696
331
2573
  5
2698
331
2574
  5
269A
331
2593
  5
269C
331
2594
  5
269D
331
2595
  5
269E
331
2596
  5
269F
331
2597
  5
26A0
331
2598
  5
26A1
331
2599
  5
26A2
331
259A
  5
26A3
331
259B
  5
26A4
331
259C
  5
26A5
331
259D
  5
26A6
331
259E
  5
26A7
331
259F
  5
26A8
331
25A0
  5
26A9
331
25A1
  5
26AA
331
25A2
  5
26AB
331
25A3
  5
26AC
331
25A4
  5
26AD
331
25A5
  5
26AE
331
25A6
  5
26B1
331
25A7
  5
26B2
331
25A8
  5
26B3
331
25A9
  5
26B4
331
25AA
  5
26B5
331
2828
  5
2858
331
2829
  5
2859
331
282A
  5
28AA
331
282B
  5
28AB
331
282C
  5
28AC
331
282D
  5
28AD
331
282E
  5
28AE
331
282F
  5
28AF
331
2830
  5
28B0
331
2831
  5
28B1
331
2832
  5
28B2
331
2833
  5
28B3
331
2834
  5
28B4
331
2835
  5
28B5
331
2836
  5
28B6
331
2837
  5
28B7
331
2838
  5
28B8
331
2839
  5
28B9
331
283A
  5
28BA
331
283B
  5
28BB
331
283C
  5
28BC
331
283D
  5
28BD
331
283E
  5
28BE
331
283F
  5
28BF
331
2840
  5
28C0
331
2841
  5
28C1
331
2842
  5
28C2
331
2843
  5
28C3
331
2844
  5
28C4
331
2845
  5
28C5
331
2846
  5
28C6
331
2847
  5
28C7
331
2848
  5
28C8
331
2849
  5
28C9
331
284A
  5
28CA
331
284B
  5
28CB
331
284C
  5
28CC
331
284D
  5
28CD
331
284E
  5
28CE
331
284F
  5
28CF
331
2850
  5
28D0
331
2851
  5
28D1
331
2852
  5
28D2
331
2853
  5
28D3
331
2854
  5
28D4
331
2855
  5
2AFD
331
2856
  5
2AFE
331
2857
  5
2AFF
331
2858
  5
2B00
331
2859
  5
2B01
331
2905
  5
2549
331
2906
  5
2547
331
2907
  5
2545
331
2908
  5
2572
331
2909
  5
259E
331
290A
  5
25A0
331
290B
  5
255A
331
290C
  5
2555
331
290D
  5
2553
331
290E
  5
2561
331
290F
  5
255E
331
2910
  5
256A
331
2911
  5
2566
331
2912
  5
2599
331
2913
  5
2574
331
2914
  5
2594
331
2915
  5
2543
331
2916
  5
2695
331
2917
  5
2697
331
2918
  5
269B
331
2919
  5
2699
331
291A
  5
254B
331
291B
  5
25A6
331
291C
  5
253F
331
291D
  5
253D
331
291E
  5
25A8
331
291F
  5
25AA
331
2AFD
  5
2B02
331
2AFE
  5
2B03
331
2AFF
  5
2B04
331
2B00
  5
2B05
331
2B01
  5
2B06
331
2B02
  5
2B07
331
2B03
  5
2B08
331
2B04
  5
2B09
331
2B05
  5
2B0A
331
2B06
  5
2B0B
331
2B07
  5
2B0D
331
2B08
  5
2B0E
331
2B09
  5
2B0F
331
2B0A
  5
2B10
331
2B0B
  5
2B11
331
2B0D
  5
2B12
331
2B0E
  5
2B13
331
2B0F
  5
2B16
331
2B10
  5
2B19
331
2B11
  5
2B1C
331
2B12
  5
2B1D
331
2B13
  5
2B1E
331
2B16
  5
2B20
331
2B19
  5
2B22
331
2B1C
  5
2B25
331
2B1D
  5
2BA0
331
2B1E
  5
2BC6
331
2B20
  5
2CFE
331
2B22
  5
2CFF
331
2B25
  5
2D00
331
2BA0
  5
2D01
331
2BC6
  5
2D02
331
2EC5
  5
2ECC
331
2EC7
  5
2ECD
331
2EC8
  5
2ECE
331
2EC9
  5
32A9
331
2ECB
  5
2557
331
2ECC
  5
2563
331
2ECD
  5
2558
331
2ECE
  5
2564
331
2ECF
  5
256F
331
33EB
  5
33EC
331
33EC
  5
33ED
331
33ED
  5
350A
331
378E
  5
3795
331
378F
  5
3796
331
3790
  5
3797
331
3791
  5
3798
331
3792
  5
3799
331
3793
  5
379A
331
3794
  5
379B
331
3795
  5
379C
331
3796
  5
379D
331
3797
  5
379E
331
3798
  5
379F
331
3799
  5
37A0
331
379A
  5
37A1
331
379B
  5
37A2
331
379C
  5
37A3
331
379D
  5
37A4
331
379E
  5
37A5
331
379F
  5
37A6
331
37A0
  5
37A7
331
37A1
  5
37A8
331
37A2
  5
37A9
331
37A3
  5
37AA
331
37A4
  5
37AB
331
37A5
  5
37AC
331
37A6
  5
37AD
331
37A7
  5
37AE
331
37A8
  5
37AF
331
37A9
  5
37B0
331
37AA
  5
37B1
331
37AB
  5
37B2
331
37AC
  5
37B3
331
37AD
  5
37B4
331
37AE
  5
37B5
331
37AF
  5
37B6
331
37B0
  5
37B7
331
37B1
  5
37B8
331
37B2
  5
37B9
331
37B3
  5
37BA
331
37B4
  5
37BB
331
37B5
  5
37BC
331
37B6
  5
37BD
331
37B7
  5
37BE
331
37B8
  5
37BF
331
37B9
  5
37C0
331
37BA
  5
37C1
331
37BB
  5
37C2
331
37BC
  5
37C3
331
37BD
  5
37C4
331
37BE
  5
37C5
331
37BF
  5
37C6
331
37C0
  5
37C7
331
37C1
  5
37C8
331
37C2
  5
37C9
331
37C3
  5
37CA
331
37C4
  5
37CB
331
37C5
  5
37D6
331
37C6
  5
37D7
331
37C7
  5
37D8
331
37C8
  5
37D9
331
37C9
  5
37DA
331
37CA
  5
37DB
331
37CB
  5
37DC
331
37D6
  5
37DD
331
37D7
  5
37DE
331
37D8
  5
37DF
331
37D9
  5
37E0
331
37DA
  5
37E1
331
37DB
  5
37E2
331
37DC
  5
37E3
331
37DD
  5
37E4
331
37DE
  5
37E5
331
37DF
  5
37E6
331
37E0
  5
37E7
331
37E1
  5
37E8
331
37E2
  5
37E9
331
37E3
  5
37EA
331
37E4
  5
37EB
331
37E5
  5
37EC
331
37E6
  5
37ED
331
37E7
  5
37EE
331
37E8
  5
37EF
331
37E9
  5
37F6
331
37EA
  5
37F7
331
37EB
  5
37F8
331
37EC
  5
37F9
331
37ED
  5
37FA
331
37EE
  5
37FB
331
37EF
  5
37FC
331
37F6
  5
37FD
331
37F7
  5
37FE
331
37F8
  5
37FF
331
37F9
  5
3800
331
37FA
  5
3801
331
37FB
  5
3802
331
37FC
  5
3803
331
37FD
  5
3804
331
37FE
  5
3805
331
37FF
  5
3806
331
3800
  5
3807
331
3801
  5
3808
331
3802
  5
3809
331
3803
  5
380A
331
3804
  5
380B
331
3805
  5
380C
331
3806
  5
380D
331
3807
  5
380E
331
3808
  5
380F
331
3809
  5
3810
331
380A
  5
3811
331
380B
  5
3812
331
380C
  5
3813
331
380D
  5
3814
331
380E
  5
3815
331
380F
  5
3816
331
3810
  5
3817
331
3811
  5
3818
331
3812
  5
3819
331
3813
  5
381A
331
3814
  5
381B
331
3815
  5
381C
331
3816
  5
381D
331
3817
  5
381E
331
3818
  5
381F
331
3819
  5
3820
331
381A
  5
3821
331
381B
  5
3822
331
381C
  5
3823
331
381D
  5
3824
331
381E
  5
3825
331
381F
  5
3826
331
3820
  5
3827
331
3821
  5
3828
331
3822
  5
3829
331
3823
  5
382A
331
3824
  5
382B
331
3825
  5
382C
331
3826
  5
382D
331
3827
  5
382E
331
3828
  5
382F
331
3829
  5
3830
331
382A
  5
3831
331
382B
  5
3832
331
382C
  5
3833
331
382D
  5
3834
331
382E
  5
3835
331
382F
  5
3836
331
3830
  5
3837
331
3831
  5
3838
331
3832
  5
3839
331
3833
  5
383A
331
3834
  5
383B
331
3835
  5
383C
331
3836
  5
383D
331
3837
  5
383E
331
3838
  5
383F
331
3839
  5
3840
331
383A
  5
3841
331
383B
  5
3842
331
383C
  5
3843
331
383D
  5
3844
331
383E
  5
3845
331
383F
  5
3846
331
3840
  5
3847
331
3841
  5
3848
331
3842
  5
3849
331
3843
  5
384A
331
3844
  5
384B
331
3845
  5
384C
331
3846
  5
384D
331
3847
  5
384E
331
3848
  5
384F
331
3849
  5
3850
331
384A
  5
3851
331
384B
  5
3852
331
384C
  5
3853
331
384D
  5
3854
331
384E
  5
3855
331
384F
  5
3856
331
3850
  5
3857
331
3851
  5
3858
331
3852
  5
3859
331
3853
  5
385A
331
3854
  5
385B
331
3855
  5
385C
331
3856
  5
385D
331
3857
  5
385E
331
3858
  5
385F
331
3859
  5
3860
331
385A
  5
3861
331
385B
  5
3862
331
385C
  5
3863
331
385D
  5
3864
331
385E
  5
3865
331
385F
  5
3866
331
3860
  5
3867
331
3861
  5
3868
331
3862
  5
3869
331
3863
  5
386A
331
3864
  5
386B
331
3865
  5
386C
331
3866
  5
386D
331
3867
  5
386E
331
3868
  5
386F
331
3869
  5
3870
331
386A
  5
3871
331
386B
  5
3872
331
386C
  5
3873
331
386D
  5
3874
331
386E
  5
3875
331
386F
  5
3876
331
3870
  5
3877
331
3871
  5
3878
331
3873
  5
387A
331
3874
  5
387B
331
3875
  5
387C
331
3876
  5
387D
331
3877
  5
387E
331
3878
  5
387F
331
3879
  5
3880
331
387A
  5
3881
331
387B
  5
3882
331
387C
  5
3883
331
387D
  5
3884
331
387E
  5
3885
331
387F
  5
3886
331
3880
  5
3887
331
3881
  5
3888
331
3882
  5
3889
331
3883
  5
388A
331
3884
  5
388B
331
3885
  5
388C
331
3886
  5
388D
331
3887
  5
388E
331
3888
  5
388F
331
3889
  5
3890
331
388A
  5
3891
331
388B
  5
3892
331
388C
  5
3893
331
388D
  5
3894
331
388E
  5
3895
331
388F
  5
3896
331
3890
  5
3897
331
3891
  5
3898
331
3892
  5
3899
331
3893
  5
389B
331
3894
  5
389C
331
3895
  5
389D
331
3896
  5
389E
331
3897
  5
389F
331
3898
  5
38A0
331
3899
  5
38A1
331
3F3C
  5
3F3D
331
3F3D
  5
3F3F
331
3F3E
  5
3F41
331
3F3F
  5
3F42
331
3F40
  5
3F43
331
3F41
  5
3F44
331
3F42
  5
3F45
331
3F43
  5
3F46
331
3F44
  5
3F47
331
3F45
  5
3F49
331
3F46
  5
3F4A
331
3F47
  5
3F4B
331
3F48
  5
3F4C
331
3F49
  5
3F4D
331
3F4A
  5
3F4E
331
3F4B
  5
3F4F
331
3F4C
  5
3F51
331
3F4D
  5
3F53
331
3F4E
  5
3F55
331
3F4F
  5
3F56
331
3F50
  5
3F57
331
3F51
  5
3F58
331
3F52
  5
3F59
331
3F53
  5
3F5A
331
3F54
  5
3F5B
331
3F55
  5
3F5C
331
3F56
  5
3F5D
331
3F57
  5
3F5E
331
3F58
  5
3F5F
331
3F59
  5
3F60
331
3F5A
  5
3F61
331
3F5B
  5
3F62
331
3F5C
  5
3F63
331
3F5D
  5
3F64
331
3F5E
  5
3F65
331
3F5F
  5
3F66
331
3F60
  5
3F67
331
3F61
  5
3F68
331
3F62
  5
3F69
331
3F63
  5
3F6A
331
3F64
  5
3F6B
331
3F65
  5
3F6C
331
3F66
  5
3F6D
331
3F67
  5
3F6E
331
3F68
  5
3F6F
331
3F69
  5
3F70
331
3F6A
  5
3F71
331
3F6B
  5
3F72
331
3F6C
  5
3F73
331
3F6D
  5
3F74
331
3F6E
  5
3F75
331
3F6F
  5
3F76
331
3F70
  5
3F77
331
3F71
  5
3F78
331
3F72
  5
3F79
331
3F73
  5
3F7A
331
3F74
  5
3F7B
331
3F75
  5
3F7C
331
3F76
  5
3F7D
331
3F77
  5
3F7E
331
3F78
  5
3F7F
331
3F79
  5
3F80
331
3F7A
  5
3F81
331
3F7B
  5
3F88
331
3F7C
  5
3F89
331
3F7D
  5
3F8A
331
3F7E
  5
3F8B
331
3F7F
  5
3F8C
331
3F80
  5
3F8D
331
3F81
  5
3F8E
331
3F88
  5
3F40
331
3F89
  5
3F3E
331
3F8A
  5
3F48
331
3F8B
  5
3F3C
331
3F8C
  5
3F50
331
3F8D
  5
3F52
331
3F8E
  5
3F54
  0
XRECORD
  5
3FC2
102
{ACAD_REACTORS
330
1EBD
102
}
330
1EBD
100
AcDbXrecord
280
     1
 40
47617.0
  1
\pxql;{\fISOCPEUR|b0|i0|c0|p34;6mm (x4)}
  0
XRECORD
  5
3FC3
102
{ACAD_REACTORS
330
1EC1
102
}
330
1EC1
100
AcDbXrecord
280
     1
 40
51393.0
  1
\pxql;{\fISOCPEUR|b0|i0|c0|p34;2.5mm (x1)}
  0
XRECORD
  5
3FC4
102
{ACAD_REACTORS
330
1EC3
102
}
330
1EC3
100
AcDbXrecord
280
     1
 40
47417.0
  1
\pxql;{\fISOCPEUR|b0|i0|c0|p34;2mm (x1)}
  0
XRECORD
  5
3FC5
102
{ACAD_REACTORS
330
1EC5
102
}
330
1EC5
100
AcDbXrecord
280
     1
 40
434380.0
  1
\pxqc;{\fISOCPEUR|b0|i0|c0|p34;chamfered\P(top side)\P+6 countersunk}
  0
XRECORD
  5
3FC6
102
{ACAD_REACTORS
330
1EC7
102
}
330
1EC7
100
AcDbXrecord
280
     1
 40
51393.0
  1
\pxql;{\fISOCPEUR|b0|i0|c0|p34;2.5mm (x1)}
  0
XRECORD
  5
3FC7
102
{ACAD_REACTORS
330
1EC9
102
}
330
1EC9
100
AcDbXrecord
280
     1
 40
47443.0
  1
\pxql;{\fISOCPEUR|b0|i0|c0|p34;3mm (x1)}
  0
XRECORD
  5
3FC8
102
{ACAD_REACTORS
330
1ECB
102
}
330
1ECB
100
AcDbXrecord
280
     1
 40
42810.0
  1
\pxql;{\fISOCPEUR|b0|i0|c0|p34;Arm 01}
  0
XRECORD
  5
3FC9
102
{ACAD_REACTORS
330
1ECF
102
}
330
1ECF
100
AcDbXrecord
280
     1
 40
49137.0
  1
\pxql;{\fISOCPEUR|b0|i0|c0|p34;Bottom}
  0
XRECORD
  5
3FCA
102
{ACAD_REACTORS
330
1ED1
102
}
330
1ED1
100
AcDbXrecord
280
     1
 40
43307.0
  1
\pxql;{\fISOCPEUR|b0|i0|c0|p34;Top 01}
  0
XRECORD
  5
3FCB
102
{ACAD_REACTORS
330
1ED3
102
}
330
1ED3
100
AcDbXrecord
280
     1
 40
57117.0
  1
\pxql;{\fISOCPEUR|b0|i0|c0|p34;Mid plate}
  0
XRECORD
  5
3FCC
102
{ACAD_REACTORS
330
1ED5
102
}
330
1ED5
100
AcDbXrecord
280
     1
 40
69414.0
  1
\pxql;{\fISOCPEUR|b0|i0|c0|p34;Sides plates}
  0
XRECORD
  5
3FCD
102
{ACAD_REACTORS
330
1ED7
102
}
330
1ED7
100
AcDbXrecord
280
     1
 40
32899.0
  1
\pxql;{\fISOCPEUR|b0|i0|c0|p34;5"}
  0
XRECORD
  5
3FCE
102
{ACAD_REACTORS
330
1ED9
102
}
330
1ED9
100
AcDbXrecord
280
     1
 40
394037.0
  1
\pxqc;{\fISOCPEUR|b0|i0|c0|p34;chamfered\P(2 sides)\P+ pressnuts}
  0
XRECORD
  5
3FCF
102
{ACAD_REACTORS
330
1EDB
102
}
330
1EDB
100
AcDbXrecord
280
     1
 40
240812.0
  1
\pxqc;{\fISOCPEUR|b0|i0|c0|p34;4 countersunk M3\P4 countersunk M2}
  0
XRECORD
  5
3FD0
102
{ACAD_REACTORS
330
1EDF
102
}
330
1EDF
100
AcDbXrecord
280
     1
 40
47521.0
  1
\pxql;{\fISOCPEUR|b0|i0|c0|p34;6mm (x1)}
  0
XRECORD
  5
3FD1
102
{ACAD_REACTORS
330
1EE1
102
}
330
1EE1
100
AcDbXrecord
280
     1
 40
38793.0
  1
\pxql;{\fISOCPEUR|b0|i0|c0|p34;Key}
  0
XRECORD
  5
3FD2
102
{ACAD_REACTORS
330
2B0C
102
}
330
2B0C
100
AcDbXrecord
280
     1
 40
213464.0
  1
\pxqc;{\fISOCPEUR|b0|i0|c0|p34;hole\Pfor pressnuts}
  0
DIMASSOC
  5
2B15
102
{ACAD_REACTORS
330
2B14
102
}
330
2B14
100
AcDbDimAssoc
330
2B13
 90
        3
 70
     0
 71
     0
  1
AcDbOsnapPointRef
 72
     6
331
2B0D
 73
     2
 91
        0
 40
1.0
 10
0.0
 20
0.0
 30
0.0
332
2B00
 74
     2
 92
        0
 75
     0
  1
AcDbOsnapPointRef
 72
     8
331
2B0E
 73
     2
 91
        0
 40
0.9999999999980511
 10
0.0
 20
0.0
 30
0.0
 75
     1
  1
AcDbOsnapPointRef
 72
     6
331
2B0D
 73
     2
 91
        0
 40
1.0
 10
0.0
 20
0.0
 30
0.0
332
2B00
 74
     2
 92
        0
 75
     0
  0
DIMASSOC
  5
2B18
102
{ACAD_REACTORS
330
2B17
102
}
330
2B17
100
AcDbDimAssoc
330
2B16
 90
        3
 70
     0
 71
     0
  1
AcDbOsnapPointRef
 72
    13
331
2B0A
 73
     2
 91
        0
 40
0.0
 10
0.0
 20
0.0
 30
2.000000000000000E+50
 75
     0
  1
AcDbOsnapPointRef
 72
    13
331
2B09
 73
     2
 91
        0
 40
0.0
 10
0.0
 20
0.0
 30
2.000000000000000E+50
 75
     0
  0
DIMASSOC
  5
2B1B
102
{ACAD_REACTORS
330
2B1A
102
}
330
2B1A
100
AcDbDimAssoc
330
2B19
 90
        2
 70
     0
 71
     0
  1
AcDbOsnapPointRef
 72
    13
331
2B0D
 73
     2
 91
        0
 40
0.0
 10
0.0
 20
0.0
 30
2.000000000000000E+50
 75
     0
  0
XRECORD
  5
3FD3
102
{ACAD_REACTORS
330
2B1F
102
}
330
2B1F
100
AcDbXrecord
280
     1
 40
79383.0
  1
\pxqc;{\fISOCPEUR|b0|i0|c0|p34;plan}
  0
XRECORD
  5
3FD4
102
{ACAD_REACTORS
330
2B21
102
}
330
2B21
100
AcDbXrecord
280
     1
 40
93952.0
  1
\pxqc;{\fISOCPEUR|b0|i0|c0|p34;section}
  0
DIMASSOC
  5
2B24
102
{ACAD_REACTORS
330
2B23
102
}
330
2B23
100
AcDbDimAssoc
330
2B22
 90
        3
 70
     0
 71
     0
  1
AcDbOsnapPointRef
 72
     1
331
2B02
 73
     2
 91
        0
 40
1.0
 10
0.0
 20
0.0
 30
2.000000000000000E+50
 75
     0
  1
AcDbOsnapPointRef
 72
     8
331
2B03
 73
     2
 91
        0
 40
1.0
 10
0.0
 20
0.0
 30
0.0
 75
     1
  1
AcDbOsnapPointRef
 72
     1
331
2B02
 73
     2
 91
        0
 40
1.0
 10
0.0
 20
0.0
 30
2.000000000000000E+50
 75
     0
  0
DIMASSOC
  5
2B27
102
{ACAD_REACTORS
330
2B26
102
}
330
2B26
100
AcDbDimAssoc
330
2B25
 90
        3
 70
     0
 71
     0
  1
AcDbOsnapPointRef
 72
     6
331
2B1D
 73
     2
 91
        2
 40
0.9999999999998781
 10
0.0
 20
0.0
 30
0.0
332
2B04
 74
     2
 92
        0
 75
     0
  1
AcDbOsnapPointRef
 72
    13
331
2B10
 73
     2
 91
        0
 40
0.0
 10
0.0
 20
0.0
 30
2.000000000000000E+50
 75
     0
  0
DIMASSOC
  5
2BBB
102
{ACAD_REACTORS
330
2BAF
102
}
330
2BAF
100
AcDbDimAssoc
330
2BA0
 90
        3
 70
     0
 71
     0
  1
AcDbOsnapPointRef
 72
     1
331
2B1D
 73
     2
 91
        6
 40
1.0
 10
0.0
 20
0.0
 30
2.000000000000000E+50
 75
     0
  1
AcDbOsnapPointRef
 72
    13
331
2B04
 73
     2
 91
        0
 40
0.0
 10
0.0
 20
0.0
 30
2.000000000000000E+50
 75
     0
  0
XRECORD
  5
3FD5
102
{ACAD_REACTORS
330
2C0F
102
}
330
2C0F
100
AcDbXrecord
280
     1
 40
1847937.0
  1
\pxqc;{\fISOCPEUR|b0|i0|c0|p34;pressnuts depth : \P%%C6.5 = 2.5mm\P%%C4.3= 3.6mm}
  0
XRECORD
  5
3FD6
102
{ACAD_REACTORS
330
2EC6
102
}
330
2EC6
100
AcDbXrecord
280
     1
 40
217916.0
  1
\pxqc;{\fISOCPEUR|b0|i0|c0|p34;pocket :\Pdepht 1.2mm }
  0
XRECORD
  5
3FD7
102
{ACAD_REACTORS
330
2ECA
102
}
330
2ECA
100
AcDbXrecord
280
     1
 40
212794.0
  1
\pxqc;{\fISOCPEUR|b0|i0|c0|p34;pocket \Pdepht 1.2mm }
  0
XRECORD
  5
3FD8
102
{ACAD_REACTORS
330
33EE
102
}
330
33EE
100
AcDbXrecord
280
     1
 40
96468.0
  1
\pxqc;{\fISOCPEUR|b0|i0|c0|p34;pocket \Pdepht 1.2mm }
  0
XRECORD
  5
3FD9
102
{ACAD_REACTORS
330
3B40
102
}
330
3B40
100
AcDbXrecord
280
     1
 40
84588.0
  1
\pxql;{\fISOCPEUR|b0|i0|c0|p34;FRAME JeNo v1.0_FULL}
  0
ACDBDETAILVIEWSTYLE
  5
21C
102
{ACAD_XDICTIONARY
360
3FE5
102
}
102
{ACAD_REACTORS
330
21B
102
}
330
21B
100
AcDbModelDocViewStyle
 70
     0
  3
Metric50
290
     0
100
AcDbDetailViewStyle
 70
     0
 71
     0
 90
        3
 71
     1
340
11
 62
   256
 40
5.0
340
0
 62
   256
 40
5.0
300

 40
0.0
280
     1
 71
     2
340
16
 90
       25
 62
   256
 71
     3
340
11
 62
   256
 40
5.0
 90
        0
 40
15.0
 90
        1
300
%<\AcVar ViewDetailId>% (%<\AcVar ViewScale \f "%sn">%)
 71
     4
340
16
 90
       25
 62
   256
340
16
 90
       25
 62
   256
280
     0
  0
LAYOUT
  5
22
102
{ACAD_XDICTIONARY
360
205
102
}
102
{ACAD_REACTORS
330
1A
102
}
330
1A
100
AcDbPlotSettings
  1

  2
none_device
  4
ISO_A4_(210.00_x_297.00_MM)
  6

 40
7.5
 41
20.0
 42
7.5
 43
20.0
 44
210.0
 45
297.0
 46
11.549999
 47
-13.65
 48
0.0
 49
0.0
140
0.0
141
0.0
142
1.0
143
8.704085
 70
 11952
 72
     1
 73
     0
 74
     0
  7

 75
     0
147
0.114889
 76
     0
 77
     2
 78
   300
148
0.0
149
0.0
100
AcDbLayout
  1
Model
 70
     1
 71
     0
 10
0.0
 20
0.0
 11
12.0
 21
9.0
 12
0.0
 22
0.0
 32
0.0
 14
0.0
 24
0.0
 34
0.0
 15
0.0
 25
0.0
 35
0.0
146
0.0
 13
0.0
 23
0.0
 33
0.0
 16
1.0
 26
0.0
 36
0.0
 17
0.0
 27
1.0
 37
0.0
 76
     0
330
1F
331
EA
1001
ACAD_PSEXT
1000
None
1000
None
1000
Not applicable
1000
The layout will not be plotted unless a new plotter configuration name is selected.
1070
     0
  0
LAYOUT
  5
D3
102
{ACAD_REACTORS
330
1A
102
}
330
1A
100
AcDbPlotSettings
  1

  2
C:\Documents and Settings\basas\Application Data\Autodesk\AutoCAD 2005\R16.1\enu\plotters\Default Windows System Printer.pc3
  4

  6

 40
0.0
 41
0.0
 42
0.0
 43
0.0
 44
0.0
 45
0.0
 46
0.0
 47
0.0
 48
0.0
 49
0.0
140
0.0
141
0.0
142
1.0
143
1.0
 70
   688
 72
     0
 73
     0
 74
     5
  7

 75
    16
147
1.0
 76
     0
 77
     2
 78
   300
148
0.0
149
0.0
100
AcDbLayout
  1
Présentation1
 70
     0
 71
     1
 10
0.0
 20
0.0
 11
12.0
 21
9.0
 12
0.0
 22
0.0
 32
0.0
 14
0.0
 24
0.0
 34
0.0
 15
0.0
 25
0.0
 35
0.0
146
0.0
 13
0.0
 23
0.0
 33
0.0
 16
1.0
 26
0.0
 36
0.0
 17
0.0
 27
1.0
 37
0.0
 76
     0
330
D2
  0
LAYOUT
  5
D7
102
{ACAD_REACTORS
330
1A
102
}
330
1A
100
AcDbPlotSettings
  1

  2
C:\Documents and Settings\basas\Application Data\Autodesk\AutoCAD 2005\R16.1\enu\plotters\Default Windows System Printer.pc3
  4

  6

 40
0.0
 41
0.0
 42
0.0
 43
0.0
 44
0.0
 45
0.0
 46
0.0
 47
0.0
 48
0.0
 49
0.0
140
0.0
141
0.0
142
1.0
143
1.0
 70
   688
 72
     0
 73
     0
 74
     5
  7

 75
    16
147
1.0
 76
     0
 77
     2
 78
   300
148
0.0
149
0.0
100
AcDbLayout
  1
Présentation2
 70
     1
 71
     2
 10
0.0
 20
0.0
 11
12.0
 21
9.0
 12
0.0
 22
0.0
 32
0.0
 14
0.0
 24
0.0
 34
0.0
 15
0.0
 25
0.0
 35
0.0
146
0.0
 13
0.0
 23
0.0
 33
0.0
 16
1.0
 26
0.0
 36
0.0
 17
0.0
 27
1.0
 37
0.0
 76
     0
330
D6
  0
MATERIAL
  5
ED
102
{ACAD_XDICTIONARY
360
1F9
102
}
102
{ACAD_REACTORS
330
6A
102
}
330
6A
100
AcDbMaterial
  1
ByBlock
 94
       63
  0
MATERIAL
  5
EC
102
{ACAD_XDICTIONARY
360
1F7
102
}
102
{ACAD_REACTORS
330
6A
102
}
330
6A
100
AcDbMaterial
  1
ByLayer
 94
       63
  0
MATERIAL
  5
EE
102
{ACAD_XDICTIONARY
360
173
102
}
102
{ACAD_REACTORS
330
6A
102
}
330
6A
100
AcDbMaterial
  1
Global
 43
0.0008
 43
0.0
 43
0.0
 43
0.0
 43
0.0
 43
0.0008
 43
0.0
 43
0.0
 43
0.0
 43
0.0
 43
1.0
 43
0.0
 43
0.0
 43
0.0
 43
0.0
 43
1.0
 49
0.0008
 49
0.0
 49
0.0
 49
0.0
 49
0.0
 49
0.0008
 49
0.0
 49
0.0
 49
0.0
 49
0.0
 49
1.0
 49
0.0
 49
0.0
 49
0.0
 49
0.0
 49
1.0
142
0.0008
142
0.0
142
0.0
142
0.0
142
0.0
142
0.0008
142
0.0
142
0.0
142
0.0
142
0.0
142
1.0
142
0.0
142
0.0
142
0.0
142
0.0
142
1.0
144
0.0008
144
0.0
144
0.0
144
0.0
144
0.0
144
0.0008
144
0.0
144
0.0
144
0.0
144
0.0
144
1.0
144
0.0
144
0.0
144
0.0
144
0.0
144
1.0
 94
       63
1001
ACAD
1070
    -1
1070
     3
1070
     0
1000

1071
        0
1070
     0
  0
MLEADERSTYLE
  5
13B
102
{ACAD_REACTORS
330
12D
102
}
330
12D
100
AcDbMLeaderStyle
179
     2
170
     2
171
     1
172
     0
 90
        2
 40
0.0
 41
0.0
173
     1
 91
-1056964608
340
14
 92
       -2
290
     1
 42
2.0
291
     1
 43
8.0
  3
Standard
 44
4.0
300

342
11
174
     1
178
     1
175
     1
176
     0
 93
-1056964608
 45
4.0
292
     0
297
     0
 46
4.0
 94
-1056964608
 47
1.0
 49
1.0
140
1.0
293
     1
141
0.0
294
     1
177
     0
142
1.0
295
     0
296
     1
143
3.75
271
     0
272
     9
273
     9
298
     0
1001
ACAD_MLEADERVER
1070
     2
  0
MLEADERSTYLE
  5
12E
102
{ACAD_REACTORS
330
12D
102
}
330
12D
100
AcDbMLeaderStyle
179
     2
170
     2
171
     1
172
     0
 90
        2
 40
0.0
 41
0.0
173
     1
 91
-1056964608
340
14
 92
       -2
290
     1
 42
2.0
291
     1
 43
8.0
  3
Standard
 44
4.0
300

342
11
174
     1
178
     1
175
     1
176
     0
 93
-1056964608
 45
4.0
292
     0
297
     0
 46
4.0
 94
-1056964608
 47
1.0
 49
1.0
140
1.0
293
     1
141
0.0
294
     1
177
     0
142
1.0
295
     0
296
     0
143
3.75
271
     0
272
     9
273
     9
298
     0
1001
ACAD_MLEADERVER
1070
     2
  0
MLINESTYLE
  5
18
102
{ACAD_REACTORS
330
17
102
}
330
17
100
AcDbMlineStyle
  2
STANDARD
 70
     0
  3

 62
   256
 51
90.0
 52
90.0
 71
     2
 49
0.5
 62
   256
  6
BYLAYER
 49
-0.5
 62
   256
  6
BYLAYER
  0
ACDBPLACEHOLDER
  5
F
102
{ACAD_REACTORS
330
E
102
}
330
E
  0
SCALE
  5
10D
102
{ACAD_REACTORS
330
10C
102
}
330
10C
100
AcDbScale
 70
     0
300
1:1
140
1.0
141
1.0
290
     1
  0
SCALE
  5
1BE
102
{ACAD_REACTORS
330
10C
102
}
330
10C
100
AcDbScale
 70
     0
300
1:2
140
1.0
141
2.0
290
     0
  0
SCALE
  5
1BF
102
{ACAD_REACTORS
330
10C
102
}
330
10C
100
AcDbScale
 70
     0
300
1:4
140
1.0
141
4.0
290
     0
  0
SCALE
  5
1C0
102
{ACAD_REACTORS
330
10C
102
}
330
10C
100
AcDbScale
 70
     0
300
1:5
140
1.0
141
5.0
290
     0
  0
SCALE
  5
1C1
102
{ACAD_REACTORS
330
10C
102
}
330
10C
100
AcDbScale
 70
     0
300
1:8
140
1.0
141
8.0
290
     0
  0
SCALE
  5
1C2
102
{ACAD_REACTORS
330
10C
102
}
330
10C
100
AcDbScale
 70
     0
300
1:10
140
1.0
141
10.0
290
     0
  0
SCALE
  5
1C3
102
{ACAD_REACTORS
330
10C
102
}
330
10C
100
AcDbScale
 70
     0
300
1:16
140
1.0
141
16.0
290
     0
  0
SCALE
  5
1C4
102
{ACAD_REACTORS
330
10C
102
}
330
10C
100
AcDbScale
 70
     0
300
1:20
140
1.0
141
20.0
290
     0
  0
SCALE
  5
1C5
102
{ACAD_REACTORS
330
10C
102
}
330
10C
100
AcDbScale
 70
     0
300
1:30
140
1.0
141
30.0
290
     0
  0
SCALE
  5
1C6
102
{ACAD_REACTORS
330
10C
102
}
330
10C
100
AcDbScale
 70
     0
300
1:40
140
1.0
141
40.0
290
     0
  0
SCALE
  5
1C7
102
{ACAD_REACTORS
330
10C
102
}
330
10C
100
AcDbScale
 70
     0
300
1:50
140
1.0
141
50.0
290
     0
  0
SCALE
  5
1C8
102
{ACAD_REACTORS
330
10C
102
}
330
10C
100
AcDbScale
 70
     0
300
1:100
140
1.0
141
100.0
290
     0
  0
SCALE
  5
1C9
102
{ACAD_REACTORS
330
10C
102
}
330
10C
100
AcDbScale
 70
     0
300
2:1
140
2.0
141
1.0
290
     0
  0
SCALE
  5
1CA
102
{ACAD_REACTORS
330
10C
102
}
330
10C
100
AcDbScale
 70
     0
300
4:1
140
4.0
141
1.0
290
     0
  0
SCALE
  5
1CB
102
{ACAD_REACTORS
330
10C
102
}
330
10C
100
AcDbScale
 70
     0
300
8:1
140
8.0
141
1.0
290
     0
  0
SCALE
  5
1CC
102
{ACAD_REACTORS
330
10C
102
}
330
10C
100
AcDbScale
 70
     0
300
10:1
140
10.0
141
1.0
290
     0
  0
SCALE
  5
1CD
102
{ACAD_REACTORS
330
10C
102
}
330
10C
100
AcDbScale
 70
     0
300
100:1
140
100.0
141
1.0
290
     0
  0
ACDBSECTIONVIEWSTYLE
  5
21A
102
{ACAD_XDICTIONARY
360
3FE3
102
}
102
{ACAD_REACTORS
330
219
102
}
330
219
100
AcDbModelDocViewStyle
 70
     0
  3
Metric50
290
     0
100
AcDbSectionViewStyle
 70
     0
 71
     0
 90
      102
 71
     1
340
11
 62
   256
 40
5.0
340
0
340
0
 62
   256
 40
5.0
300
I, O, Q, S, X, Z
 40
10.0
 90
        0
 40
2.5
 90
        0
 71
     2
340
16
 90
       25
 62
   256
340
16
 90
       50
 62
   256
 40
5.0
 40
2.5
 40
5.0
 71
     3
340
11
 62
   256
 40
5.0
 90
        0
 40
15.0
 90
        1
300
%<\AcVar ViewSectionStartId>%-%<\AcVar ViewSectionEndId>% (%<\AcVar ViewScale \f "%sn">%)
 71
     4
 62
   256
 62
   257
300
ANSI31
 40
1.0
 90
        0
290
     0
290
     0
 90
        6
 40
0.0
 40
1.570795999999999
 40
0.261799
 40
1.308996999999999
 40
-0.261799
 40
1.832595999999999
  0
TABLESTYLE
  5
7F
102
{ACAD_XDICTIONARY
360
1A23
102
}
102
{ACAD_REACTORS
330
7E
102
}
330
7E
100
AcDbTableStyle
280
     0
  3
Standard
 70
     0
 71
     0
 40
1.5
 41
1.5
280
     0
281
     0
  7
Standard
140
4.5
170
     2
 62
     0
 63
     7
283
     0
 90
      512
 91
        0
  1

274
    -2
284
     1
 64
     0
275
    -2
285
     1
 65
     0
276
    -2
286
     1
 66
     0
277
    -2
287
     1
 67
     0
278
    -2
288
     1
 68
     0
279
    -2
289
     1
 69
     0
  7
Standard
140
6.0
170
     5
 62
     0
 63
     7
283
     0
 90
      512
 91
        0
  1

274
    -2
284
     1
 64
     0
275
    -2
285
     1
 65
     0
276
    -2
286
     1
 66
     0
277
    -2
287
     1
 67
     0
278
    -2
288
     1
 68
     0
279
    -2
289
     1
 69
     0
  7
Standard
140
4.5
170
     5
 62
     0
 63
     7
283
     0
 90
      512
 91
        0
  1

274
    -2
284
     1
 64
     0
275
    -2
285
     1
 65
     0
276
    -2
286
     1
 66
     0
277
    -2
287
     1
 67
     0
278
    -2
288
     1
 68
     0
279
    -2
289
     1
 69
     0
  0
VISUALSTYLE
  5
F5
102
{ACAD_REACTORS
330
EF
102
}
330
EF
100
AcDbVisualStyle
  2
2dWireframe
 70
     4
177
     3
291
     0
 70
    58
 90
        0
176
     1
 90
        2
176
     1
 90
        1
176
     1
 90
        0
176
     1
 40
0.6
176
     1
 40
30.0
176
     1
 62
     7
420
 16777215
176
     1
 90
        1
176
     1
 90
        4
176
     1
 62
     7
176
     1
 62
   257
176
     1
 90
        1
176
     1
 90
        1
176
     1
 40
1.0
176
     1
 90
        0
176
     1
 62
   257
176
     1
 40
1.0
176
     1
 90
        1
176
     1
 90
        6
176
     1
 90
        2
176
     1
 62
     7
176
     1
 90
        5
176
     1
 90
        0
176
     1
 90
        0
176
     1
290
     0
176
     1
 90
        1
176
     1
 40
0.0
176
     1
 90
        0
176
     1
290
     1
176
     1
290
     1
176
     1
290
     0
176
     1
290
     0
176
     1
290
     0
176
     1
290
     0
176
     1
290
     0
176
     1
290
     0
176
     1
290
     0
176
     1
 90
       50
176
     1
 40
0.0
176
     1
 40
1.0
176
     1
 90
        0
176
     1
 62
    18
176
     1
 90
       50
176
     1
 90
        3
176
     1
 62
     5
420
      255
176
     1
290
     0
176
     1
 90
       50
176
     1
 90
       50
176
     1
 90
       50
176
     1
290
     0
176
     1
 90
       50
176
     1
 62
   256
176
     0
 40
1.0
176
     0
 90
        2
176
     1
  1
strokes_ogs.tif
176
     1
290
     0
176
     1
 40
1.0
176
     1
 40
1.0
176
     1
1001
ACAD
1000
AcDbSavedByObjectVersion
1070
     0
  0
VISUALSTYLE
  5
F4
102
{ACAD_REACTORS
330
EF
102
}
330
EF
100
AcDbVisualStyle
  2
Basic
 70
     7
177
     3
291
     1
 70
    58
 90
        1
176
     1
 90
        0
176
     1
 90
        1
176
     1
 90
        0
176
     1
 40
0.6
176
     1
 40
30.0
176
     1
 62
     7
420
 16777215
176
     1
 90
        0
176
     1
 90
        4
176
     1
 62
     7
176
     1
 62
   257
176
     1
 90
        1
176
     1
 90
        1
176
     1
 40
1.0
176
     1
 90
        8
176
     1
 62
     7
176
     1
 40
1.0
176
     1
 90
        1
176
     1
 90
        6
176
     1
 90
        2
176
     1
 62
     7
176
     1
 90
        5
176
     1
 90
        0
176
     1
 90
        0
176
     1
290
     0
176
     1
 90
        1
176
     1
 40
0.0
176
     1
 90
        0
176
     1
290
     0
176
     1
290
     1
176
     1
290
     1
176
     1
290
     0
176
     1
290
     0
176
     1
290
     0
176
     1
290
     0
176
     1
290
     0
176
     1
290
     0
176
     1
 90
       50
176
     1
 40
0.0
176
     1
 40
1.0
176
     1
 90
        0
176
     1
 62
    18
176
     1
 90
       50
176
     1
 90
        3
176
     1
 62
     5
420
      255
176
     1
290
     0
176
     1
 90
       50
176
     1
 90
       50
176
     1
 90
       50
176
     1
290
     0
176
     1
 90
       50
176
     1
 62
   256
176
     0
 40
1.0
176
     0
 90
        2
176
     1
  1
strokes_ogs.tif
176
     1
290
     0
176
     1
 40
1.0
176
     1
 40
1.0
176
     1
1001
ACAD
1000
AcDbSavedByObjectVersion
1070
     0
  0
VISUALSTYLE
  5
FB
102
{ACAD_REACTORS
330
EF
102
}
330
EF
100
AcDbVisualStyle
  2
Brighten
 70
    12
177
     3
291
     1
 70
    58
 90
        2
176
     1
 90
        2
176
     1
 90
        1
176
     1
 90
        0
176
     1
 40
0.6
176
     1
 40
30.0
176
     1
 62
     7
420
 16777215
176
     1
 90
        1
176
     1
 90
        4
176
     1
 62
     7
176
     1
 62
   257
176
     1
 90
        1
176
     1
 90
        1
176
     1
 40
1.0
176
     1
 90
        8
176
     1
 62
     7
176
     1
 40
1.0
176
     1
 90
        1
176
     1
 90
        6
176
     1
 90
        2
176
     1
 62
     7
176
     1
 90
        5
176
     1
 90
        0
176
     1
 90
        0
176
     1
290
     0
176
     1
 90
        1
176
     1
 40
50.0
176
     1
 90
        0
176
     1
290
     0
176
     1
290
     1
176
     1
290
     1
176
     1
290
     0
176
     1
290
     0
176
     1
290
     0
176
     1
290
     0
176
     1
290
     0
176
     1
290
     0
176
     1
 90
       50
176
     1
 40
0.0
176
     1
 40
1.0
176
     1
 90
        0
176
     1
 62
    18
176
     1
 90
       50
176
     1
 90
        3
176
     1
 62
     5
420
      255
176
     1
290
     0
176
     1
 90
       50
176
     1
 90
       50
176
     1
 90
       50
176
     1
290
     0
176
     1
 90
       50
176
     1
 62
   256
176
     0
 40
1.0
176
     0
 90
        2
176
     1
  1
strokes_ogs.tif
176
     1
290
     0
176
     1
 40
1.0
176
     1
 40
1.0
176
     1
1001
ACAD
1000
AcDbSavedByObjectVersion
1070
     0
  0
VISUALSTYLE
  5
FF
102
{ACAD_REACTORS
330
EF
102
}
330
EF
100
AcDbVisualStyle
  2
ColorChange
 70
    16
177
     3
291
     1
 70
    58
 90
        2
176
     1
 90
        2
176
     1
 90
        3
176
     1
 90
        0
176
     1
 40
0.6
176
     1
 40
30.0
176
     1
 62
     8
420
  8421504
176
     1
 90
        1
176
     1
 90
        4
176
     1
 62
     7
176
     1
 62
   257
176
     1
 90
        1
176
     1
 90
        1
176
     1
 40
1.0
176
     1
 90
        8
176
     1
 62
     8
420
  8421504
176
     1
 40
1.0
176
     1
 90
        1
176
     1
 90
        6
176
     1
 90
        2
176
     1
 62
     7
176
     1
 90
        5
176
     1
 90
        0
176
     1
 90
        0
176
     1
290
     0
176
     1
 90
        1
176
     1
 40
0.0
176
     1
 90
        0
176
     1
290
     0
176
     1
290
     1
176
     1
290
     1
176
     1
290
     0
176
     1
290
     0
176
     1
290
     0
176
     1
290
     0
176
     1
290
     0
176
     1
290
     0
176
     1
 90
       50
176
     1
 40
0.0
176
     1
 40
1.0
176
     1
 90
        0
176
     1
 62
    18
176
     1
 90
       50
176
     1
 90
        3
176
     1
 62
     5
420
      255
176
     1
290
     0
176
     1
 90
       50
176
     1
 90
       50
176
     1
 90
       50
176
     1
290
     0
176
     1
 90
       50
176
     1
 62
   256
176
     0
 40
1.0
176
     0
 90
        2
176
     1
  1
strokes_ogs.tif
176
     1
290
     0
176
     1
 40
1.0
176
     1
 40
1.0
176
     1
1001
ACAD
1000
AcDbSavedByObjectVersion
1070
     0
  0
VISUALSTYLE
  5
F8
102
{ACAD_REACTORS
330
EF
102
}
330
EF
100
AcDbVisualStyle
  2
Conceptual
 70
     9
177
     3
291
     0
 70
    58
 90
        3
176
     1
 90
        2
176
     1
 90
        1
176
     1
 90
        0
176
     1
 40
0.6
176
     1
 40
30.0
176
     1
 62
     7
420
 16777215
176
     1
 90
        2
176
     1
 90
        2
176
     1
 62
     7
176
     1
 62
   257
176
     1
 90
        1
176
     1
 90
        1
176
     1
 40
40.0
176
     1
 90
        8
176
     1
 62
     7
176
     1
 40
1.0
176
     1
 90
        1
176
     1
 90
        6
176
     1
 90
        2
176
     1
 62
     7
176
     1
 90
        3
176
     1
 90
        0
176
     1
 90
        0
176
     1
290
     0
176
     1
 90
        1
176
     1
 40
0.0
176
     1
 90
        0
176
     1
290
     0
176
     1
290
     1
176
     1
290
     1
176
     1
290
     0
176
     1
290
     0
176
     1
290
     0
176
     1
290
     0
176
     1
290
     0
176
     1
290
     0
176
     1
 90
       50
176
     1
 40
0.0
176
     1
 40
1.0
176
     1
 90
        0
176
     1
 62
    18
176
     1
 90
       50
176
     1
 90
        3
176
     1
 62
     5
420
      255
176
     1
290
     0
176
     1
 90
       50
176
     1
 90
       50
176
     1
 90
       50
176
     1
290
     0
176
     1
 90
       50
176
     1
 62
   256
176
     0
 40
1.0
176
     0
 90
        2
176
     1
  1
strokes_ogs.tif
176
     1
290
     0
176
     1
 40
1.0
176
     1
 40
1.0
176
     1
1001
ACAD
1000
AcDbSavedByObjectVersion
1070
     0
  0
VISUALSTYLE
  5
FA
102
{ACAD_REACTORS
330
EF
102
}
330
EF
100
AcDbVisualStyle
  2
Dim
 70
    11
177
     3
291
     1
 70
    58
 90
        2
176
     1
 90
        2
176
     1
 90
        1
176
     1
 90
        0
176
     1
 40
0.6
176
     1
 40
30.0
176
     1
 62
     7
420
 16777215
176
     1
 90
        1
176
     1
 90
        4
176
     1
 62
     7
176
     1
 62
   257
176
     1
 90
        1
176
     1
 90
        1
176
     1
 40
1.0
176
     1
 90
        8
176
     1
 62
     7
176
     1
 40
1.0
176
     1
 90
        1
176
     1
 90
        6
176
     1
 90
        2
176
     1
 62
     7
176
     1
 90
        5
176
     1
 90
        0
176
     1
 90
        0
176
     1
290
     0
176
     1
 90
        1
176
     1
 40
-50.0
176
     1
 90
        0
176
     1
290
     0
176
     1
290
     1
176
     1
290
     1
176
     1
290
     0
176
     1
290
     0
176
     1
290
     0
176
     1
290
     0
176
     1
290
     0
176
     1
290
     0
176
     1
 90
       50
176
     1
 40
0.0
176
     1
 40
1.0
176
     1
 90
        0
176
     1
 62
    18
176
     1
 90
       50
176
     1
 90
        3
176
     1
 62
     5
420
      255
176
     1
290
     0
176
     1
 90
       50
176
     1
 90
       50
176
     1
 90
       50
176
     1
290
     0
176
     1
 90
       50
176
     1
 62
   256
176
     0
 40
1.0
176
     0
 90
        2
176
     1
  1
strokes_ogs.tif
176
     1
290
     0
176
     1
 40
1.0
176
     1
 40
1.0
176
     1
1001
ACAD
1000
AcDbSavedByObjectVersion
1070
     0
  0
VISUALSTYLE
  5
1E6
102
{ACAD_REACTORS
330
EF
102
}
330
EF
100
AcDbVisualStyle
  2
EdgeColorOff
 70
    22
177
     3
291
     1
 70
    58
 90
        2
176
     0
 90
        2
176
     0
 90
        0
176
     0
 90
        0
176
     0
 40
0.6
176
     0
 40
30.0
176
     0
 62
     7
420
 16777215
176
     0
 90
        1
176
     0
 90
        4
176
     0
 62
     7
176
     0
 62
   257
176
     0
 90
        1
176
     0
 90
        1
176
     0
 40
1.0
176
     0
 90
        8
176
     2
 62
     7
176
     0
 40
1.0
176
     0
 90
        1
176
     0
 90
        6
176
     0
 90
        2
176
     0
 62
     7
176
     0
 90
        5
176
     0
 90
        0
176
     0
 90
        0
176
     0
290
     0
176
     0
 90
        1
176
     0
 40
0.0
176
     0
 90
        0
176
     0
290
     0
176
     1
290
     1
176
     1
290
     1
176
     1
290
     0
176
     1
290
     0
176
     1
290
     0
176
     1
290
     0
176
     1
290
     0
176
     1
290
     0
176
     1
 90
       50
176
     1
 40
0.0
176
     1
 40
1.0
176
     1
 90
        0
176
     1
 62
    18
176
     1
 90
       50
176
     1
 90
        3
176
     1
 62
     5
420
      255
176
     1
290
     0
176
     1
 90
       50
176
     1
 90
       50
176
     1
 90
       50
176
     1
290
     0
176
     1
 90
       50
176
     1
 62
   256
176
     0
 40
1.0
176
     0
 90
        2
176
     1
  1
strokes_ogs.tif
176
     1
290
     0
176
     1
 40
1.0
176
     1
 40
1.0
176
     1
1001
ACAD
1000
AcDbSavedByObjectVersion
1070
     0
  0
VISUALSTYLE
  5
FE
102
{ACAD_REACTORS
330
EF
102
}
330
EF
100
AcDbVisualStyle
  2
Facepattern
 70
    15
177
     3
291
     1
 70
    58
 90
        2
176
     1
 90
        2
176
     1
 90
        1
176
     1
 90
        0
176
     1
 40
0.6
176
     1
 40
30.0
176
     1
 62
     7
420
 16777215
176
     1
 90
        1
176
     1
 90
        4
176
     1
 62
     7
176
     1
 62
   257
176
     1
 90
        1
176
     1
 90
        1
176
     1
 40
1.0
176
     1
 90
        8
176
     1
 62
     7
176
     1
 40
1.0
176
     1
 90
        1
176
     1
 90
        6
176
     1
 90
        2
176
     1
 62
     7
176
     1
 90
        5
176
     1
 90
        0
176
     1
 90
        0
176
     1
290
     0
176
     1
 90
        1
176
     1
 40
0.0
176
     1
 90
        0
176
     1
290
     0
176
     1
290
     1
176
     1
290
     1
176
     1
290
     0
176
     1
290
     0
176
     1
290
     0
176
     1
290
     0
176
     1
290
     0
176
     1
290
     0
176
     1
 90
       50
176
     1
 40
0.0
176
     1
 40
1.0
176
     1
 90
        0
176
     1
 62
    18
176
     1
 90
       50
176
     1
 90
        3
176
     1
 62
     5
420
      255
176
     1
290
     0
176
     1
 90
       50
176
     1
 90
       50
176
     1
 90
       50
176
     1
290
     0
176
     1
 90
       50
176
     1
 62
   256
176
     0
 40
1.0
176
     0
 90
        2
176
     1
  1
strokes_ogs.tif
176
     1
290
     0
176
     1
 40
1.0
176
     1
 40
1.0
176
     1
1001
ACAD
1000
AcDbSavedByObjectVersion
1070
     0
  0
VISUALSTYLE
  5
F0
102
{ACAD_REACTORS
330
EF
102
}
330
EF
100
AcDbVisualStyle
  2
Flat
 70
     0
177
     3
291
     1
 70
    58
 90
        2
176
     1
 90
        1
176
     1
 90
        1
176
     1
 90
        2
176
     1
 40
0.6
176
     1
 40
30.0
176
     1
 62
     7
420
 16777215
176
     1
 90
        0
176
     1
 90
        0
176
     1
 62
     7
176
     1
 62
   257
176
     1
 90
        1
176
     1
 90
        1
176
     1
 40
1.0
176
     1
 90
        8
176
     1
 62
     7
176
     1
 40
1.0
176
     1
 90
        1
176
     1
 90
        6
176
     1
 90
        2
176
     1
 62
     7
176
     1
 90
        5
176
     1
 90
        0
176
     1
 90
        0
176
     1
290
     0
176
     1
 90
       13
176
     1
 40
0.0
176
     1
 90
        0
176
     1
290
     0
176
     1
290
     1
176
     1
290
     1
176
     1
290
     0
176
     1
290
     0
176
     1
290
     0
176
     1
290
     0
176
     1
290
     0
176
     1
290
     0
176
     1
 90
       50
176
     1
 40
0.0
176
     1
 40
1.0
176
     1
 90
        0
176
     1
 62
    18
176
     1
 90
       50
176
     1
 90
        3
176
     1
 62
     5
420
      255
176
     1
290
     0
176
     1
 90
       50
176
     1
 90
       50
176
     1
 90
       50
176
     1
290
     0
176
     1
 90
       50
176
     1
 62
   256
176
     0
 40
1.0
176
     0
 90
        2
176
     1
  1
strokes_ogs.tif
176
     1
290
     0
176
     1
 40
1.0
176
     1
 40
1.0
176
     1
1001
ACAD
1000
AcDbSavedByObjectVersion
1070
     0
  0
VISUALSTYLE
  5
F1
102
{ACAD_REACTORS
330
EF
102
}
330
EF
100
AcDbVisualStyle
  2
FlatWithEdges
 70
     1
177
     3
291
     1
 70
    58
 90
        2
176
     1
 90
        1
176
     1
 90
        1
176
     1
 90
        2
176
     1
 40
0.6
176
     1
 40
30.0
176
     1
 62
     7
420
 16777215
176
     1
 90
        1
176
     1
 90
        0
176
     1
 62
     7
176
     1
 62
   257
176
     1
 90
        1
176
     1
 90
        1
176
     1
 40
1.0
176
     1
 90
        0
176
     1
 62
   257
176
     1
 40
1.0
176
     1
 90
        1
176
     1
 90
        6
176
     1
 90
        2
176
     1
 62
     7
176
     1
 90
        5
176
     1
 90
        0
176
     1
 90
        0
176
     1
290
     0
176
     1
 90
       13
176
     1
 40
0.0
176
     1
 90
        0
176
     1
290
     0
176
     1
290
     1
176
     1
290
     1
176
     1
290
     0
176
     1
290
     0
176
     1
290
     0
176
     1
290
     0
176
     1
290
     0
176
     1
290
     0
176
     1
 90
       50
176
     1
 40
0.0
176
     1
 40
1.0
176
     1
 90
        0
176
     1
 62
    18
176
     1
 90
       50
176
     1
 90
        3
176
     1
 62
     5
420
      255
176
     1
290
     0
176
     1
 90
       50
176
     1
 90
       50
176
     1
 90
       50
176
     1
290
     0
176
     1
 90
       50
176
     1
 62
   256
176
     0
 40
1.0
176
     0
 90
        2
176
     1
  1
strokes_ogs.tif
176
     1
290
     0
176
     1
 40
1.0
176
     1
 40
1.0
176
     1
1001
ACAD
1000
AcDbSavedByObjectVersion
1070
     0
  0
VISUALSTYLE
  5
F2
102
{ACAD_REACTORS
330
EF
102
}
330
EF
100
AcDbVisualStyle
  2
Gouraud
 70
     2
177
     3
291
     1
 70
    58
 90
        2
176
     1
 90
        2
176
     1
 90
        1
176
     1
 90
        2
176
     1
 40
0.6
176
     1
 40
30.0
176
     1
 62
     7
420
 16777215
176
     1
 90
        0
176
     1
 90
        0
176
     1
 62
     7
176
     1
 62
   257
176
     1
 90
        1
176
     1
 90
        1
176
     1
 40
1.0
176
     1
 90
        0
176
     1
 62
     7
176
     1
 40
1.0
176
     1
 90
        1
176
     1
 90
        6
176
     1
 90
        2
176
     1
 62
     7
176
     1
 90
        5
176
     1
 90
        0
176
     1
 90
        0
176
     1
290
     0
176
     1
 90
       13
176
     1
 40
0.0
176
     1
 90
        0
176
     1
290
     0
176
     1
290
     1
176
     1
290
     1
176
     1
290
     0
176
     1
290
     0
176
     1
290
     0
176
     1
290
     0
176
     1
290
     0
176
     1
290
     0
176
     1
 90
       50
176
     1
 40
0.0
176
     1
 40
1.0
176
     1
 90
        0
176
     1
 62
    18
176
     1
 90
       50
176
     1
 90
        3
176
     1
 62
     5
420
      255
176
     1
290
     0
176
     1
 90
       50
176
     1
 90
       50
176
     1
 90
       50
176
     1
290
     0
176
     1
 90
       50
176
     1
 62
   256
176
     0
 40
1.0
176
     0
 90
        2
176
     1
  1
strokes_ogs.tif
176
     1
290
     0
176
     1
 40
1.0
176
     1
 40
1.0
176
     1
1001
ACAD
1000
AcDbSavedByObjectVersion
1070
     0
  0
VISUALSTYLE
  5
F3
102
{ACAD_REACTORS
330
EF
102
}
330
EF
100
AcDbVisualStyle
  2
GouraudWithEdges
 70
     3
177
     3
291
     1
 70
    58
 90
        2
176
     1
 90
        2
176
     1
 90
        1
176
     1
 90
        2
176
     1
 40
0.6
176
     1
 40
30.0
176
     1
 62
     7
420
 16777215
176
     1
 90
        1
176
     1
 90
        0
176
     1
 62
     7
176
     1
 62
   257
176
     1
 90
        1
176
     1
 90
        1
176
     1
 40
1.0
176
     1
 90
        0
176
     1
 62
   257
176
     1
 40
1.0
176
     1
 90
        1
176
     1
 90
        6
176
     1
 90
        2
176
     1
 62
     7
176
     1
 90
        5
176
     1
 90
        0
176
     1
 90
        0
176
     1
290
     0
176
     1
 90
       13
176
     1
 40
0.0
176
     1
 90
        0
176
     1
290
     0
176
     1
290
     1
176
     1
290
     1
176
     1
290
     0
176
     1
290
     0
176
     1
290
     0
176
     1
290
     0
176
     1
290
     0
176
     1
290
     0
176
     1
 90
       50
176
     1
 40
0.0
176
     1
 40
1.0
176
     1
 90
        0
176
     1
 62
    18
176
     1
 90
       50
176
     1
 90
        3
176
     1
 62
     5
420
      255
176
     1
290
     0
176
     1
 90
       50
176
     1
 90
       50
176
     1
 90
       50
176
     1
290
     0
176
     1
 90
       50
176
     1
 62
   256
176
     0
 40
1.0
176
     0
 90
        2
176
     1
  1
strokes_ogs.tif
176
     1
290
     0
176
     1
 40
1.0
176
     1
 40
1.0
176
     1
1001
ACAD
1000
AcDbSavedByObjectVersion
1070
     0
  0
VISUALSTYLE
  5
F7
102
{ACAD_REACTORS
330
EF
102
}
330
EF
100
AcDbVisualStyle
  2
Hidden
 70
     6
177
     3
291
     0
 70
    58
 90
        1
176
     1
 90
        2
176
     1
 90
        2
176
     1
 90
        0
176
     1
 40
0.6
176
     1
 40
30.0
176
     1
 62
     7
420
 16777215
176
     1
 90
        2
176
     1
 90
        2
176
     1
 62
     7
176
     1
 62
   257
176
     1
 90
        2
176
     1
 90
        1
176
     1
 40
40.0
176
     1
 90
        0
176
     1
 62
   257
176
     1
 40
1.0
176
     1
 90
        1
176
     1
 90
        6
176
     1
 90
        2
176
     1
 62
     7
176
     1
 90
        3
176
     1
 90
        0
176
     1
 90
        0
176
     1
290
     0
176
     1
 90
        1
176
     1
 40
0.0
176
     1
 90
        0
176
     1
290
     0
176
     1
290
     1
176
     1
290
     1
176
     1
290
     0
176
     1
290
     0
176
     1
290
     0
176
     1
290
     0
176
     1
290
     0
176
     1
290
     0
176
     1
 90
       50
176
     1
 40
0.0
176
     1
 40
1.0
176
     1
 90
        0
176
     1
 62
    18
176
     1
 90
       50
176
     1
 90
        3
176
     1
 62
     5
420
      255
176
     1
290
     0
176
     1
 90
       50
176
     1
 90
       50
176
     1
 90
       50
176
     1
290
     0
176
     1
 90
       50
176
     1
 62
   256
176
     0
 40
1.0
176
     0
 90
        2
176
     1
  1
strokes_ogs.tif
176
     1
290
     0
176
     1
 40
1.0
176
     1
 40
1.0
176
     1
1001
ACAD
1000
AcDbSavedByObjectVersion
1070
     0
  0
VISUALSTYLE
  5
1E4
102
{ACAD_REACTORS
330
EF
102
}
330
EF
100
AcDbVisualStyle
  2
JitterOff
 70
    20
177
     3
291
     1
 70
    58
 90
        2
176
     0
 90
        2
176
     0
 90
        0
176
     0
 90
        0
176
     0
 40
0.6
176
     0
 40
30.0
176
     0
 62
     7
420
 16777215
176
     0
 90
        1
176
     0
 90
        4
176
     0
 62
     7
176
     0
 62
   257
176
     0
 90
        1
176
     0
 90
        1
176
     0
 40
1.0
176
     0
 90
       10
176
     2
 62
     7
176
     0
 40
1.0
176
     0
 90
        1
176
     0
 90
        6
176
     0
 90
        2
176
     0
 62
     7
176
     0
 90
        5
176
     0
 90
        0
176
     0
 90
        0
176
     0
290
     0
176
     0
 90
        1
176
     0
 40
0.0
176
     0
 90
        0
176
     0
290
     0
176
     1
290
     1
176
     1
290
     1
176
     1
290
     0
176
     1
290
     0
176
     1
290
     0
176
     1
290
     0
176
     1
290
     0
176
     1
290
     0
176
     1
 90
       50
176
     1
 40
0.0
176
     1
 40
1.0
176
     1
 90
        0
176
     1
 62
    18
176
     1
 90
       50
176
     1
 90
        3
176
     1
 62
     5
420
      255
176
     1
290
     0
176
     1
 90
       50
176
     1
 90
       50
176
     1
 90
       50
176
     1
290
     0
176
     1
 90
       50
176
     1
 62
   256
176
     0
 40
1.0
176
     0
 90
        2
176
     1
  1
strokes_ogs.tif
176
     1
290
     0
176
     1
 40
1.0
176
     1
 40
1.0
176
     1
1001
ACAD
1000
AcDbSavedByObjectVersion
1070
     0
  0
VISUALSTYLE
  5
FD
102
{ACAD_REACTORS
330
EF
102
}
330
EF
100
AcDbVisualStyle
  2
Linepattern
 70
    14
177
     3
291
     1
 70
    58
 90
        2
176
     1
 90
        2
176
     1
 90
        1
176
     1
 90
        0
176
     1
 40
0.6
176
     1
 40
30.0
176
     1
 62
     7
420
 16777215
176
     1
 90
        1
176
     1
 90
        4
176
     1
 62
     7
176
     1
 62
   257
176
     1
 90
        7
176
     1
 90
        7
176
     1
 40
1.0
176
     1
 90
        8
176
     1
 62
     7
176
     1
 40
1.0
176
     1
 90
        1
176
     1
 90
        6
176
     1
 90
        2
176
     1
 62
     7
176
     1
 90
        5
176
     1
 90
        0
176
     1
 90
        0
176
     1
290
     0
176
     1
 90
        1
176
     1
 40
0.0
176
     1
 90
        0
176
     1
290
     0
176
     1
290
     1
176
     1
290
     1
176
     1
290
     0
176
     1
290
     0
176
     1
290
     0
176
     1
290
     0
176
     1
290
     0
176
     1
290
     0
176
     1
 90
       50
176
     1
 40
0.0
176
     1
 40
1.0
176
     1
 90
        0
176
     1
 62
    18
176
     1
 90
       50
176
     1
 90
        3
176
     1
 62
     5
420
      255
176
     1
290
     0
176
     1
 90
       50
176
     1
 90
       50
176
     1
 90
       50
176
     1
290
     0
176
     1
 90
       50
176
     1
 62
   256
176
     0
 40
1.0
176
     0
 90
        2
176
     1
  1
strokes_ogs.tif
176
     1
290
     0
176
     1
 40
1.0
176
     1
 40
1.0
176
     1
1001
ACAD
1000
AcDbSavedByObjectVersion
1070
     0
  0
VISUALSTYLE
  5
1E5
102
{ACAD_REACTORS
330
EF
102
}
330
EF
100
AcDbVisualStyle
  2
OverhangOff
 70
    21
177
     3
291
     1
 70
    58
 90
        2
176
     0
 90
        2
176
     0
 90
        0
176
     0
 90
        0
176
     0
 40
0.6
176
     0
 40
30.0
176
     0
 62
     7
420
 16777215
176
     0
 90
        1
176
     0
 90
        4
176
     0
 62
     7
176
     0
 62
   257
176
     0
 90
        1
176
     0
 90
        1
176
     0
 40
1.0
176
     0
 90
        9
176
     2
 62
     7
176
     0
 40
1.0
176
     0
 90
        1
176
     0
 90
        6
176
     0
 90
        2
176
     0
 62
     7
176
     0
 90
        5
176
     0
 90
        0
176
     0
 90
        0
176
     0
290
     0
176
     0
 90
        1
176
     0
 40
0.0
176
     0
 90
        0
176
     0
290
     0
176
     1
290
     1
176
     1
290
     1
176
     1
290
     0
176
     1
290
     0
176
     1
290
     0
176
     1
290
     0
176
     1
290
     0
176
     1
290
     0
176
     1
 90
       50
176
     1
 40
0.0
176
     1
 40
1.0
176
     1
 90
        0
176
     1
 62
    18
176
     1
 90
       50
176
     1
 90
        3
176
     1
 62
     5
420
      255
176
     1
290
     0
176
     1
 90
       50
176
     1
 90
       50
176
     1
 90
       50
176
     1
290
     0
176
     1
 90
       50
176
     1
 62
   256
176
     0
 40
1.0
176
     0
 90
        2
176
     1
  1
strokes_ogs.tif
176
     1
290
     0
176
     1
 40
1.0
176
     1
 40
1.0
176
     1
1001
ACAD
1000
AcDbSavedByObjectVersion
1070
     0
  0
VISUALSTYLE
  5
F9
102
{ACAD_REACTORS
330
EF
102
}
330
EF
100
AcDbVisualStyle
  2
Realistic
 70
     8
177
     3
291
     0
 70
    58
 90
        2
176
     1
 90
        3
176
     1
 90
        0
176
     1
 90
        2
176
     1
 40
0.6
176
     1
 40
30.0
176
     1
 62
     7
420
 16777215
176
     1
 90
        0
176
     1
 90
        0
176
     1
 62
     7
176
     1
 62
   257
176
     1
 90
        1
176
     1
 90
        1
176
     1
 40
1.0
176
     1
 90
        8
176
     1
 62
   257
176
     1
 40
1.0
176
     1
 90
        1
176
     1
 90
        6
176
     1
 90
        2
176
     1
 62
     7
176
     1
 90
        3
176
     1
 90
        0
176
     1
 90
        0
176
     1
290
     0
176
     1
 90
       13
176
     1
 40
0.0
176
     1
 90
        0
176
     1
290
     0
176
     1
290
     1
176
     1
290
     1
176
     1
290
     0
176
     1
290
     0
176
     1
290
     0
176
     1
290
     0
176
     1
290
     0
176
     1
290
     0
176
     1
 90
       50
176
     1
 40
0.0
176
     1
 40
1.0
176
     1
 90
        0
176
     1
 62
    18
176
     1
 90
       50
176
     1
 90
        3
176
     1
 62
     5
420
      255
176
     1
290
     0
176
     1
 90
       50
176
     1
 90
       50
176
     1
 90
       50
176
     1
290
     0
176
     1
 90
       50
176
     1
 62
   256
176
     0
 40
1.0
176
     0
 90
        2
176
     1
  1
strokes_ogs.tif
176
     1
290
     0
176
     1
 40
1.0
176
     1
 40
1.0
176
     1
1001
ACAD
1000
AcDbSavedByObjectVersion
1070
     0
  0
VISUALSTYLE
  5
1F3
102
{ACAD_REACTORS
330
EF
102
}
330
EF
100
AcDbVisualStyle
  2
Shaded
 70
    27
177
     3
291
     0
 70
    58
 90
        2
176
     1
 90
        2
176
     1
 90
        1
176
     1
 90
        2
176
     1
 40
0.6
176
     1
 40
30.0
176
     1
 62
     7
420
 16777215
176
     1
 90
        0
176
     1
 90
        4
176
     1
 62
     7
176
     1
 62
   257
176
     1
 90
        1
176
     1
 90
        1
176
     1
 40
1.0
176
     1
 90
        8
176
     1
 62
   257
176
     1
 40
1.0
176
     1
 90
        1
176
     1
 90
        6
176
     1
 90
        2
176
     1
 62
     8
420
  7895160
176
     1
 90
        3
176
     1
 90
        0
176
     1
 90
        0
176
     1
290
     0
176
     1
 90
        5
176
     1
 40
0.0
176
     1
 90
        0
176
     1
290
     0
176
     1
290
     1
176
     1
290
     1
176
     1
290
     0
176
     1
290
     0
176
     1
290
     0
176
     1
290
     0
176
     1
290
     0
176
     1
290
     0
176
     1
 90
       50
176
     1
 40
0.0
176
     1
 40
1.0
176
     1
 90
        0
176
     1
 62
    18
176
     1
 90
       50
176
     1
 90
        3
176
     1
 62
     5
420
      255
176
     1
290
     0
176
     1
 90
       50
176
     1
 90
       50
176
     1
 90
       50
176
     1
290
     0
176
     1
 90
       50
176
     1
 62
   256
176
     0
 40
1.0
176
     0
 90
        2
176
     1
  1
strokes_ogs.tif
176
     1
290
     0
176
     1
 40
1.0
176
     1
 40
1.0
176
     1
1001
ACAD
1000
AcDbSavedByObjectVersion
1070
     0
  0
VISUALSTYLE
  5
1F2
102
{ACAD_REACTORS
330
EF
102
}
330
EF
100
AcDbVisualStyle
  2
Shaded with edges
 70
    26
177
     3
291
     0
 70
    58
 90
        2
176
     1
 90
        2
176
     1
 90
        1
176
     1
 90
        2
176
     1
 40
0.6
176
     1
 40
30.0
176
     1
 62
     7
420
 16777215
176
     1
 90
        1
176
     1
 90
        2
176
     1
 62
     7
176
     1
 62
   257
176
     1
 90
        2
176
     1
 90
        1
176
     1
 40
1.0
176
     1
 90
        8
176
     1
 62
   257
176
     1
 40
1.0
176
     1
 90
        1
176
     1
 90
        6
176
     1
 90
        2
176
     1
 62
     7
176
     1
 90
        3
176
     1
 90
        0
176
     1
 90
        0
176
     1
290
     0
176
     1
 90
        5
176
     1
 40
0.0
176
     1
 90
        0
176
     1
290
     0
176
     1
290
     1
176
     1
290
     1
176
     1
290
     0
176
     1
290
     0
176
     1
290
     0
176
     1
290
     0
176
     1
290
     0
176
     1
290
     0
176
     1
 90
       50
176
     1
 40
0.0
176
     1
 40
1.0
176
     1
 90
        0
176
     1
 62
    18
176
     1
 90
       50
176
     1
 90
        3
176
     1
 62
     5
420
      255
176
     1
290
     0
176
     1
 90
       50
176
     1
 90
       50
176
     1
 90
       50
176
     1
290
     0
176
     1
 90
       50
176
     1
 62
   256
176
     0
 40
1.0
176
     0
 90
        2
176
     1
  1
strokes_ogs.tif
176
     1
290
     0
176
     1
 40
1.0
176
     1
 40
1.0
176
     1
1001
ACAD
1000
AcDbSavedByObjectVersion
1070
     0
  0
VISUALSTYLE
  5
1EF
102
{ACAD_REACTORS
330
EF
102
}
330
EF
100
AcDbVisualStyle
  2
Shades of Gray
 70
    23
177
     3
291
     0
 70
    58
 90
        2
176
     1
 90
        2
176
     1
 90
        3
176
     1
 90
        0
176
     1
 40
0.6
176
     1
 40
30.0
176
     1
 62
     7
420
 16777215
176
     1
 90
        2
176
     1
 90
        2
176
     1
 62
     7
176
     1
 62
     7
176
     1
 90
        1
176
     1
 90
        1
176
     1
 40
40.0
176
     1
 90
        8
176
     1
 62
     7
176
     1
 40
1.0
176
     1
 90
        1
176
     1
 90
        6
176
     1
 90
        2
176
     1
 62
     7
176
     1
 90
        3
176
     1
 90
        0
176
     1
 90
        0
176
     1
290
     0
176
     1
 90
        1
176
     1
 40
0.0
176
     1
 90
        0
176
     1
290
     0
176
     1
290
     1
176
     1
290
     1
176
     1
290
     0
176
     1
290
     0
176
     1
290
     0
176
     1
290
     0
176
     1
290
     0
176
     1
290
     0
176
     1
 90
       50
176
     1
 40
0.0
176
     1
 40
1.0
176
     1
 90
        0
176
     1
 62
    18
176
     1
 90
       50
176
     1
 90
        3
176
     1
 62
     5
420
      255
176
     1
290
     0
176
     1
 90
       50
176
     1
 90
       50
176
     1
 90
       50
176
     1
290
     0
176
     1
 90
       50
176
     1
 62
   256
176
     0
 40
1.0
176
     0
 90
        2
176
     1
  1
strokes_ogs.tif
176
     1
290
     0
176
     1
 40
1.0
176
     1
 40
1.0
176
     1
1001
ACAD
1000
AcDbSavedByObjectVersion
1070
     0
  0
VISUALSTYLE
  5
1F0
102
{ACAD_REACTORS
330
EF
102
}
330
EF
100
AcDbVisualStyle
  2
Sketchy
 70
    24
177
     3
291
     0
 70
    58
 90
        1
176
     1
 90
        2
176
     1
 90
        2
176
     1
 90
        0
176
     1
 40
0.6
176
     1
 40
30.0
176
     1
 62
     7
420
 16777215
176
     1
 90
        2
176
     1
 90
        2
176
     1
 62
     7
176
     1
 62
     7
176
     1
 90
        1
176
     1
 90
        1
176
     1
 40
40.0
176
     1
 90
       11
176
     1
 62
     7
176
     1
 40
1.0
176
     1
 90
        1
176
     1
 90
        6
176
     1
 90
        2
176
     1
 62
     7
176
     1
 90
        6
176
     1
 90
        0
176
     1
 90
        0
176
     1
290
     0
176
     1
 90
        1
176
     1
 40
0.0
176
     1
 90
        0
176
     1
290
     0
176
     1
290
     1
176
     1
290
     1
176
     1
290
     0
176
     1
290
     0
176
     1
290
     0
176
     1
290
     0
176
     1
290
     0
176
     1
290
     0
176
     1
 90
       50
176
     1
 40
0.0
176
     1
 40
1.0
176
     1
 90
        0
176
     1
 62
    18
176
     1
 90
       50
176
     1
 90
        3
176
     1
 62
     5
420
      255
176
     1
290
     0
176
     1
 90
       50
176
     1
 90
       50
176
     1
 90
       50
176
     1
290
     0
176
     1
 90
       50
176
     1
 62
   256
176
     0
 40
1.0
176
     0
 90
        2
176
     1
  1
strokes_ogs.tif
176
     1
290
     0
176
     1
 40
1.0
176
     1
 40
1.0
176
     1
1001
ACAD
1000
AcDbSavedByObjectVersion
1070
     0
  0
VISUALSTYLE
  5
FC
102
{ACAD_REACTORS
330
EF
102
}
330
EF
100
AcDbVisualStyle
  2
Thicken
 70
    13
177
     3
291
     1
 70
    58
 90
        2
176
     1
 90
        2
176
     1
 90
        1
176
     1
 90
        0
176
     1
 40
0.6
176
     1
 40
30.0
176
     1
 62
     7
420
 16777215
176
     1
 90
        1
176
     1
 90
        4
176
     1
 62
     7
176
     1
 62
   257
176
     1
 90
        1
176
     1
 90
        1
176
     1
 40
1.0
176
     1
 90
       12
176
     1
 62
     7
176
     1
 40
1.0
176
     1
 90
        1
176
     1
 90
        6
176
     1
 90
        2
176
     1
 62
     7
176
     1
 90
        5
176
     1
 90
        0
176
     1
 90
        0
176
     1
290
     0
176
     1
 90
        1
176
     1
 40
0.0
176
     1
 90
        0
176
     1
290
     0
176
     1
290
     1
176
     1
290
     1
176
     1
290
     0
176
     1
290
     0
176
     1
290
     0
176
     1
290
     0
176
     1
290
     0
176
     1
290
     0
176
     1
 90
       50
176
     1
 40
0.0
176
     1
 40
1.0
176
     1
 90
        0
176
     1
 62
    18
176
     1
 90
       50
176
     1
 90
        3
176
     1
 62
     5
420
      255
176
     1
290
     0
176
     1
 90
       50
176
     1
 90
       50
176
     1
 90
       50
176
     1
290
     0
176
     1
 90
       50
176
     1
 62
   256
176
     0
 40
1.0
176
     0
 90
        2
176
     1
  1
strokes_ogs.tif
176
     1
290
     0
176
     1
 40
1.0
176
     1
 40
1.0
176
     1
1001
ACAD
1000
AcDbSavedByObjectVersion
1070
     0
  0
VISUALSTYLE
  5
F6
102
{ACAD_REACTORS
330
EF
102
}
330
EF
100
AcDbVisualStyle
  2
Wireframe
 70
     5
177
     3
291
     0
 70
    58
 90
        0
176
     1
 90
        2
176
     1
 90
        0
176
     1
 90
        0
176
     1
 40
0.6
176
     1
 40
30.0
176
     1
 62
     7
420
 16777215
176
     1
 90
        1
176
     1
 90
        4
176
     1
 62
     7
176
     1
 62
   257
176
     1
 90
        1
176
     1
 90
        1
176
     1
 40
1.0
176
     1
 90
        0
176
     1
 62
   257
176
     1
 40
1.0
176
     1
 90
        1
176
     1
 90
        6
176
     1
 90
        2
176
     1
 62
     7
176
     1
 90
        3
176
     1
 90
        0
176
     1
 90
        0
176
     1
290
     0
176
     1
 90
        1
176
     1
 40
0.0
176
     1
 90
        0
176
     1
290
     0
176
     1
290
     1
176
     1
290
     1
176
     1
290
     0
176
     1
290
     0
176
     1
290
     0
176
     1
290
     0
176
     1
290
     0
176
     1
290
     0
176
     1
 90
       50
176
     1
 40
0.0
176
     1
 40
1.0
176
     1
 90
        0
176
     1
 62
    18
176
     1
 90
       50
176
     1
 90
        3
176
     1
 62
     5
420
      255
176
     1
290
     0
176
     1
 90
       50
176
     1
 90
       50
176
     1
 90
       50
176
     1
290
     0
176
     1
 90
       50
176
     1
 62
   256
176
     0
 40
1.0
176
     0
 90
        2
176
     1
  1
strokes_ogs.tif
176
     1
290
     0
176
     1
 40
1.0
176
     1
 40
1.0
176
     1
1001
ACAD
1000
AcDbSavedByObjectVersion
1070
     0
  0
VISUALSTYLE
  5
1F1
102
{ACAD_REACTORS
330
EF
102
}
330
EF
100
AcDbVisualStyle
  2
X-Ray
 70
    25
177
     3
291
     0
 70
    58
 90
        2
176
     1
 90
        2
176
     1
 90
        1
176
     1
 90
        1
176
     1
 40
0.5
176
     1
 40
30.0
176
     1
 62
     7
420
 16777215
176
     1
 90
        1
176
     1
 90
        0
176
     1
 62
     7
176
     1
 62
   257
176
     1
 90
        1
176
     1
 90
        1
176
     1
 40
1.0
176
     1
 90
        8
176
     1
 62
     7
176
     1
 40
1.0
176
     1
 90
        1
176
     1
 90
        6
176
     1
 90
        2
176
     1
 62
     7
176
     1
 90
        3
176
     1
 90
        0
176
     1
 90
        0
176
     1
290
     0
176
     1
 90
       13
176
     1
 40
0.0
176
     1
 90
        0
176
     1
290
     0
176
     1
290
     1
176
     1
290
     1
176
     1
290
     0
176
     1
290
     0
176
     1
290
     0
176
     1
290
     0
176
     1
290
     0
176
     1
290
     0
176
     1
 90
       50
176
     1
 40
0.0
176
     1
 40
1.0
176
     1
 90
        0
176
     1
 62
    18
176
     1
 90
       50
176
     1
 90
        3
176
     1
 62
     5
420
      255
176
     1
290
     0
176
     1
 90
       50
176
     1
 90
       50
176
     1
 90
       50
176
     1
290
     0
176
     1
 90
       50
176
     1
 62
   256
176
     0
 40
1.0
176
     0
 90
        2
176
     1
  1
strokes_ogs.tif
176
     1
290
     0
176
     1
 40
1.0
176
     1
 40
1.0
176
     1
1001
ACAD
1000
AcDbSavedByObjectVersion
1070
     0
  0
DICTIONARYVAR
  5
146
102
{ACAD_REACTORS
330
5E
102
}
330
5E
100
DictionaryVariables
280
     0
  1
1:1
  0
DICTIONARYVAR
  5
259
102
{ACAD_REACTORS
330
5E
102
}
330
5E
100
DictionaryVariables
280
     0
  1
3.500000
  0
DICTIONARYVAR
  5
25A
102
{ACAD_REACTORS
330
5E
102
}
330
5E
100
DictionaryVariables
280
     0
  1
acadiso.lin
  0
DICTIONARYVAR
  5
145
102
{ACAD_REACTORS
330
5E
102
}
330
5E
100
DictionaryVariables
280
     0
  1
STANDARD
  0
DICTIONARYVAR
  5
84
102
{ACAD_REACTORS
330
5E
102
}
330
5E
100
DictionaryVariables
280
     0
  1
STANDARD
  0
DICTIONARYVAR
  5
227
102
{ACAD_REACTORS
330
5E
102
}
330
5E
100
DictionaryVariables
280
     0
  1
Metric50
  0
DICTIONARYVAR
  5
228
102
{ACAD_REACTORS
330
5E
102
}
330
5E
100
DictionaryVariables
280
     0
  1
Metric50
  0
DICTIONARYVAR
  5
5F
102
{ACAD_REACTORS
330
5E
102
}
330
5E
100
DictionaryVariables
280
     0
  1
2
  0
DICTIONARYVAR
  5
63
102
{ACAD_REACTORS
330
5E
102
}
330
5E
100
DictionaryVariables
280
     0
  1
1
  0
DICTIONARYVAR
  5
1AE
102
{ACAD_REACTORS
330
5E
102
}
330
5E
100
DictionaryVariables
280
     0
  1
0
  0
DICTIONARYVAR
  5
1AF
102
{ACAD_REACTORS
330
5E
102
}
330
5E
100
DictionaryVariables
280
     0
  1
0
  0
DICTIONARY
  5
3FE2
102
{ACAD_REACTORS
330
3FE0
102
}
330
3FE0
100
AcDbDictionary
281
     1
  0
DICTIONARY
  5
3FE1
102
{ACAD_REACTORS
330
3FE0
102
}
330
3FE0
100
AcDbDictionary
281
     1
  3
2295923370032
350
3FDB
  3
2295923370048
350
3FDC
  3
2295923370064
350
3FDD
  3
2295923370080
350
3FDE
  3
2295923370096
350
3FDF
  0
XRECORD
  5
1774
102
{ACAD_REACTORS
330
A5C
102
}
330
A5C
100
AcDbXrecord
280
     1
300
MC_VERSION_DATA
 90
       95
310
0600000002000000570000001C000000E404000000000000000000007801936764E5D8CF7A8393818115C460606066E0646662626666706006F214793899F8DE3171E725E6E53B3BBA2878E6951050AF75FEFFFFFF520032DE0F3057000000
  0
XRECORD
  5
A5D
102
{ACAD_REACTORS
330
A5C
102
}
330
A5C
100
AcDbXrecord
280
     1
300
MCS_DOCUMENT_ID
 90
       60
310
0600000002000000150000001C000000E404000000000000000000007801E3F5ABDEF86867BB90C72C7BDBEF2FE497ADFD0F040072420C6715000000
  0
XRECORD
  5
E1E
102
{ACAD_REACTORS
330
A5C
102
}
330
A5C
100
AcDbXrecord
280
     1
300
MCS_PARAMS_DATA
 90
     3313
310
0600000002000000F64B00001C000000E404000000000000000000007801C55C5B6C5CC519DE9D595FD6B9DF494B53970A1A6F4A58DF92A6426A1A1210527090E23EF0543976A2BA75E25CAC160A6DA92AF5A55255A96AD556551F4A49A0CF15A03EC0438190865E482021147221409310B6900B3826B1FB7F7366CEFC73E6
310
1CAFBDDE3D9B07D8FF3F73CEF7DFE6FB67E6ECBA757EA3143929F767A4FCCE8636299AA49C90529036BB402C105929F279912F89C6DEAF6FD8BC69AB14A46C51EAC2B9898909BA39945F872C1FCD848A834A91A13B1AD51D6D5266E8A9FAF627E9AABE92BD45CA6F03BD81A3CFC24D59D990C96408C7E066656E0232E13A03
310
14B0AB01724443F05CC3F08780DFC8F19B03FC710A073DC8486413411B49060E3311A05C24C45064703B01D7CCE196A818E5C59C9268B967CBD6DED68ED59DC52EEB78BEF08E09F8223D745649346F1DE9DB35D0B777C089FC5FC3C8EB60BF1A286CF47FE3467F17CC59C5CD990B0CD948C1A77FB9F5CA0E4F479188EA541E
310
3C25A2E22BC99C8892456878B2821857F6B05492C2AD881B41409C21325211340605C9C6DC6006EC49AC088A0CCBB25B1159B72248E415019155047D5453031360047082A7405D92B72AB0F03379693EAB50870260AC609E2C6F6510BB3D081DFE4EF5EFECD71494A7B3590EC7F12C5B25CB32539229914732934ECE22AF1D
310
D259AC8B7B7649E437DE7BDFA69EADF76EE95186E95A7ED74C032DBFA66A9BF1CEF341B19B78E45DDED9EF56FE29189043E4814BF734E1FF34659991678231F23A51010DA578E8294D435524988818E84710A7B2643B4F7C134F5CC6936D1E4176D01398C4D0A83AE0A6BDC86B0BB5C3E1E8299D70A5A945AC12322FE697C4
310
9C8DC3BBBE34D2BA77FBEEA1BEFEED79D15C120DF70F0FEE1A093EF60C8FF47F4BCAB3B0ED666EDB17F5733E2B445B5E2C298985C507BB8BEBBA3A3A3774178B1D777FA5B36B9D327BBE1ED84C030BC74C9EDAB5B64D88BC405AEF1E1CD9D73A34B88F70838775AD5DDBD1B9B6BBABBB73A0ABA37F5D7BE0E757F57D1DB80F
310
037BFBB60D6D6F1DDED1DA3B3CB47D6FDF2EF8A0AD5933506CEF2FF6F7ADD9D6B56D5DFF9A60D6A95222FF670B51F8295953F8455019945B7EE9315C7A8AFEC352DE9D4B4A5050256AA6D1B42D5F0C265BEED4473538E9811F770DEFDCDD3732B86D706870E4A1D69DC303E45F6349C807B6EFCB8B8692103DC352AE816545
310
9E9E798813B5E9A692C86DD9B1A355A5424F8E0BF018466AF90D150136590E2905AA568F782650907D5A7180140B84AD0159F8156902B8F63BDA8BE1A72E29AF48322EA98B5F578631B6F5489B26184C63434803DB221A328E6B58DEAED6DB808FEB6DC068BD0DF8A4DE065CABB7018B3045EB390B3EAD7704C6EA6DC07518
310
10B79C17773A0DB6C361F03BDD064B22C8C7303844629E5064B47323116EB9039777E096BB70247238880C6E39831B9F221C81B3E543C57019D4736C30574EE2DD4AD73B12B9771099772B997713E97A974DF4CECD5D9582B938116EC00926492C777A7F676A8F441E4C882C98032C983211AE26DE8974E196022EC7174366
310
F9AE62C95769E105B5C4B012E2E82ED8CD3516C5E34D519CF0D1F6765A8551C6CC0505130A3E8ABEC46EF81CED54DC1DA04AB7BC4DB0CA082453194AB29B82400C2B438BA6322032B88FE093B3E13470C11297490C8EEF78E88158D51A8AD42283A38F61044E78707A57F8BBDFE2DF2167F36975041D1DA7FCF59430C35792
310
05112533A905D5D3CAAB4759DBB4CA160F3E9309466F934A1794E7E1154C402D3088858048DCDF7EA3E7FECD5B7A7B376D5480CBF43A7E5E49CCBE6BEB37D945B2402FC65F52AB73B67E7F3A58AE93F37A04F6B7011D680556EBCCA2819BC8A21C320F385BBDB4EE56E6E32CE2CB18E358AD7676B4C7C096B1674BAF7B1278
310
1E906198B0DF8681EA696AF34D20563061CAB731C0DB01185B8B0DCA46538BD880EB0E2C6FC3120B40E62289BC162112587895C11513E18290E892090EBF46A9321968C513E0BB89A0AE8F2431B88A7DFC9E07A7BD0A8E668E3AF3CDEA083A3A8ECFB770A00AB53712018F2859D8DB3D93C2E4D422CB77A40BB73A5DB807A7
310
0857A5727AC8838BE45965D0D3D5B29CBEEF99145F4E558AC0C3E9C23D922EDC0FD285FBA107E7958EEDE721E98018A3E3AAC64E7F5C166D7ABA81B65C437BB31D766C74A6ED6E1FBC2766B7AFDAD87156F9771BF44A2A724C461AB43EE729AAFB710D63E2111810BBA3ABC9AE6037E09AB9BF3AB40BE8309F8736AB64CAB2
310
BE7E3364E5AC569CA6976081AF5A311628A8EF68C5B3A4609E3E86AC3AA156E3E83562F4B5A292099A878C61EB3B549CF92354989982613F016CE7AD5A4D09AA1F5126387AAD451EE384D9C035A925859E39C1AA865EE9A9B8DA21CEE289167F7CF1D4C4BC7A125EC5AED5D8BB0B5A9D9144D134CFA71BF85A8D44BE568348
310
F6AA55A2F3CAEACF6982FD29118CC249D3CBF852A586F278BA70FBD3853B90085793EDE51E143F0AD06C6B4CB2242BDDBDD1419166C2865E85F9CE1648F3CBF54B2E655D5432557AB8C599EEE6E763403914E55050D879E2BFFA30F366F009F0CB378371CA9B99D05949929DD07465EA8797A3808B6B06B9536E64AF9C844C
310
903AF2F3709D3783A318A078E4F37AEBBCEC2DD1B228B722F785DC2DB9D64C476675A63353CC74E937B1FA39BFA7DB58A6AFC19E49583A4A9B6110A6BA038D3C80418F79D091B18A763C1D8524AA5361F194EC4CC4B23EDBA3192533E95398E41423EB6DCA1C239B4DBF91D13F6D762A6897D7013D496371DC8BECCAA7D45E
310
0C251095ABC98AA38E1B6540CD3DACF829EF15C38D27C2B92DA64A071D13897001094F16523EC1C9E5A99FF465029665AB5B13C49AF8984D174EA40B273D389D33BB29A272F6749622C2719C22AC925104534E7A8CF33714555C6B3CF3BE4BE0AF28994CA9B8353E0F28878DD26D8D2F007FBAAD11BD305CEB4EAB35BE08B8
310
B8D678FEB81BD9134AB6ADF10A644BBEF9C2334A81E4EAA6772450D87DD2AF49C178F020A0EBD3055FF292CC5B8AB3FC4114C86BA708ACDB15F49C43C04EBBE7FCBD0CA8A1CB2AF59CC3897035E1E39713E16AD873FE91085A131FFF19C04DBEDBF8D75406FD3B3A2842E56C8ABE82A171BC3BF89ECB0E0F287926BC7B0450
310
75E4DDA3C09F2EEF56BE2579157071BCBBE7881BD93E255BDE7D04B225A07C61BD5230DE1DBA8C1158736B225E412358525F03747D78F79897E472BCCBAF5BAF2BA0DDE3804E9B765F2F035A65DA3D910857134A7A2311AE52DA8D6E0E9C1341735A873DD47F12A16BE2E99BE9C275792B70532835F1AEDB838B7404B509F7
310
74C449519D9AA19EB28205FF5B08785CE3F9307262735AC933693C270155C7C6730AF8E9359ED3808B6B3CA387DDC6734EC9B6F1C897238DE72006D89713F9C2E58B91C6F3388D608DE70CA0A7DA7866D30F8008DC16BEAA2D26A2AAB848F4108A0CF46D0F54D7A73989E2C56D75B6B8431D2F6EAB64C5CD94644C04869974
310
1626C5B6A280378D1BEE62BCE2C3917700E714386FAA719B1D7E7D464DF7DD444F8317374E8CAA75BEF65E19D0F8F0523EC21D7470DCC60B8CAEF29753FC38EF4760CFDBF99B4673F680D0869F6742513F06849341B61DF57EE3400A02734628D75C0DBC8B68A868B98655ECA330208EA3C6F1B52E3DF1E8849E2433679564
310
431A886148B568E62C4406F75F64308EFD2F9D7039EA6D259B5B2BF91AD8396F72B01004EFC5CD6C88F911E8CCDF849C077E5C64E9488747967101058B73015D99FA9B900B808B63FFB117DCC85E50324556799F2F34BC086EC70CD18A4318C0D9FF2AB6807CDB718046B0A4BE0FE8B4D9FFA207EA504E3D7E65FA014C7226
310
B329B0E8D703AAFEBAA304E869379E693123CD68457958A4FF2F11AE86ECFF6119D078F6E7138AD87FF2370F86D6E1E34789702D76FED2134932CCA824CB8C811832A3160D33426421BD940847AF6F0C11D33DEECB1CFE9B7175D1F926045DE5BD8DBFBDBE9C081764D0049324E6DDB40A8607F34A225C4D16463974B5B836
310
F3B3A32E193EACE499B49986C93A780A6DA631A981D7A6CD34012EAECDFCF23937B23F51B26D337F80CCDBCC36A5C0ECD07DE7E7A7236D663D8D6033A419D0536D33E07F56B8C4CA7C0D48229F9610695A461A0883CE7B494E8DD95B004DF38E8247AB09FE45AC1A52EDAC32A0861DD8DA85D8A76276989D08579353913989
310
700119397510D9BB4CAB9DF096393711B4263ECE4B176E7EBA700B3C389DB3F0B5335AA6A7234288EA142D784A9083AFB414616018456CF64C3293C4CD2F49D3E5A5F0410CEE3E0F2E6A6FEA11580893E29AEE529C2FC11C4DF48D4AA628982DB44A422820F8563073C8F989CF2240392BED74F7768B819FDEDE6E09E0E29A
310
EE0AFA030B3CB273954C91D5916E83CC9BEE074FAB1E6B73B11CFB6CBEB73B4C23589D2D05F4CC9AAE2E4C768646F0614DBB4BD40606BDCC4B726A4DF72640A7DD749797013521AB4ED3C5971C1BF2225712D922FD192CAA82F186C253F467B664EED8B163100EA1787299890C1D4314EEF90B040C236113FD72905624B8F0
310
99FF03A92412CEF64B0000
  0
DICTIONARY
  5
3FE5
330
21C
100
AcDbDictionary
280
     1
281
     1
  3
ACAD_XREC_ROUNDTRIP
360
3FE6
  0
DICTIONARY
  5
205
330
22
100
AcDbDictionary
280
     1
281
     1
  0
DICTIONARY
  5
1F9
330
ED
100
AcDbDictionary
280
     1
281
     1
  3
FBXASSET
360
1FA
  0
DICTIONARY
  5
1F7
330
EC
100
AcDbDictionary
280
     1
281
     1
  3
FBXASSET
360
1F8
  0
DICTIONARY
  5
173
330
EE
100
AcDbDictionary
280
     1
281
     1
  3
FBXASSET
360
1FB
  0
DICTIONARY
  5
3FE3
330
21A
100
AcDbDictionary
280
     1
281
     1
  3
ACAD_XREC_ROUNDTRIP
360
3FE4
  0
DICTIONARY
  5
1A23
330
7F
100
AcDbDictionary
280
     1
281
     1
  3
ACAD_ROUNDTRIP_2008_TABLESTYLE_CELLSTYLEMAP
360
3FC1
  0
XRECORD
  5
3FDB
102
{ACAD_REACTORS
330
3FE1
102
}
330
3FE1
100
AcDbXrecord
280
     1
  1
AcDb_Thumbnail_Schema
102
{ATTRRECORD
341
3FDC
  2
AcDbDs::TreatedAsObjectData
280
     1
291
     1
102
ATTRRECORD}
102
{ATTRRECORD
341
3FDD
  2
AcDbDs::Legacy
280
     1
291
     1
102
ATTRRECORD}
  2
AcDbDs::ID
280
    10
 91
        8
102
{ATTRRECORD
341
3FDE
  2
AcDs:Indexable
280
     1
291
     1
102
ATTRRECORD}
102
{ATTRRECORD
341
3FDF
  2
AcDbDs::HandleAttribute
280
     7
282
     1
102
ATTRRECORD}
  2
Thumbnail_Data
280
    15
 91
        0
  0
XRECORD
  5
3FDC
102
{ACAD_REACTORS
330
3FE1
102
}
330
3FE1
100
AcDbXrecord
280
     1
  1
AcDbDs::TreatedAsObjectDataSchema
  2
AcDbDs::TreatedAsObjectData
280
     1
 91
        0
  0
XRECORD
  5
3FDD
102
{ACAD_REACTORS
330
3FE1
102
}
330
3FE1
100
AcDbXrecord
280
     1
  1
AcDbDs::LegacySchema
  2
AcDbDs::Legacy
280
     1
 91
        0
  0
XRECORD
  5
3FDE
102
{ACAD_REACTORS
330
3FE1
102
}
330
3FE1
100
AcDbXrecord
280
     1
  1
AcDbDs::IndexedPropertySchema
  2
AcDs:Indexable
280
     1
 91
        0
  0
XRECORD
  5
3FDF
102
{ACAD_REACTORS
330
3FE1
102
}
330
3FE1
100
AcDbXrecord
280
     1
  1
AcDbDs::HandleAttributeSchema
  2
AcDbDs::HandleAttribute
280
     7
 91
        1
284
     1
  0
XRECORD
  5
3FE6
102
{ACAD_REACTORS
330
3FE5
102
}
330
3FE5
100
AcDbXrecord
280
     1
102
DISPLAYNAME
  1
Metric50
102
FLAGS
 90
        0
  0
XRECORD
  5
1FA
102
{ACAD_REACTORS
330
1F9
102
}
330
1F9
100
AcDbXrecord
280
     1
 70
     1
 90
429727718
  1
D62C5603-E3A1-4AEA-B7FB-FE5D8D0755AF
310
504B03040A0000080000CC70623B3DEE336E79000000790000001B0000006175746F6465736B2D64657369676E2D7061636B6167652E786D6C3C3F786D6C2076657273696F6E3D22312E302220656E636F64696E673D227574662D3822203F3E3C666F726D6174733E3C666F726D61743E687474703A2F2F736368656D612E
310
6175746F6465736B2E636F6D2F64657369676E2D7061636B6167652F323030393C2F666F726D61743E3C2F666F726D6174733E504B0304140006080800CC70623BD486FD9CA0000000F4000000130000005B436F6E74656E745F54797065735D2E786D6C7D8EC10E82300C865F65E91D8A1E8C310C0EEA1BF002731658846E
310
D98AC1B77784ABF1D8FE5FBFBF75BBCE937A534CCEB38643598122B6FEE978D0B0485F9C41B54DDD7D022595594E1A469170414C76A4D9A4D207E29CF43ECE46F218070CC6BECC4078ACAA135ACF422C856C0E68EA1BF5669944DDD7BCDE7B1F8E415D77AECB980613C2E4AC91FC167A2B244592486606FC29C8FD7F045B9A
310
EF7053A7E60B504B0304140006080800CC70623B853B8169EB0000007C01000008000000636F72652E786D6C8D90416EC3201045AF62CDB6C206821CC7C244919D9CA01740401C94182C03558F5F9C3852BBEB6A467FFE9B197D7EFC9E1EC5975982F5AE035262288C535E5B377690E21535501C055FBC8FBF6C503839990E
310
5619041F179FE64D52DE45E362569DD7661365082642A11EB9E920A89B99642953CC8E702F67A9EE7234257977194EC9EAE275C4EABCCF5EAD5940D4AC6F0E35A568B8F43562CD7046CD199FD07E60174276A7BE677B5EADB0E0D14EEFFB6A31321A0D82627C4084204C3F096B71DD52F6819B16635EADF63F509AF53FA164
310
5DDCD1EDDD17164090FCC8732078B56691CB33A85CD7DCC40F504B0304140006080800CC70623B55019EA25F0000007C00000007000000636E782E786D6C4DCB3B0E80201045D1AD90E915ED2CF8AC45050C11660C8261F98AB1B07AC9C97D42D718D865D3E909258CFD00CCE24AC6E326A164D74DC0B4128928FF32603847
310
2BA13128B1252AC747C6BAB984FC68F0B87FE8960A5C09FE86CFB69FBA01504B0304140006080800CC70623BDBABAAF470010000D40300000C0000006662782F636F72652E786D6CC553D16E823014FD95A6AF4B694182CC941A83FA05FB810A9511A125A5257EFE2E82712ECEB8A7F100CD39F7F69E734AF9FADC366850B6
310
AF8DCE7018308C942E4C59EB2AC3DE1D498AD15A706B8CFB56869196ADCAF00863C12B6B7C374385D14E6907A836A59A41D9F7CA615434B0C8705F7CAA5606D23BA8E84F41278B93AC54100640439DE0BDB320004D43C63716C7C399D30917DCFBBA9CD9BA8469F5B156168B24CED3F7248AC8769F27244EB73B92EED8862C
310
B7F13E0C179B3C8F979C8ECD82BBBABDAA2BAC924E9558448CBD9330242CFA08E3154B5651FCC6D215639C8EE5774DBE2B5F6CF2B5768B68963BB5F5588420E442FC700B1139D4CB01F450C1E918227C2E09DF070D8140C84E1E9AAB8F1340832A9CB13130A5F1376A908D57309505ECF2A0DF179C4E9D30F5B239B87E3823
310
7A79C6F31DE1A8A5AEC08474B03C7837EAE4938639B44E5932B833D2C6B6B279CDC613877FA26EE21F4A2A4C63EC7F29A2F301D1F9F7A0E37D145F504B0304140006080800CC70623B9C113CC27E0000009D0000000B0000006662782F636E782E786D6C4DCCDF0A83201C86E15B91DFB94BFB330DD428C8FB886521330DA7
310
6397BF1A1DECE883878F57749FCDA1B7892F1BBC047A23808C7F84D9FA55424E0BE6803A256208E9EF06C84F9B91703228B1C690F78B66B34CD9A5439DF5CF0BFBF65E35BCA1B8D6A5C6F540381E886698B5741C695F9503EBA150A2F8958E3DC3EA0B504B0304140006080800CC70623B7DF2F77C2A010000120200003100
310
00006662782F41393633353835312D344632462D344230382D423046372D3739314545314133324237412F636F72652E786D6C8D51DB8EC22014FC15C2939B0D2DB4B45643319AE817EC0F6041255A68B86CFCFC856D4D76DF7CE190393373060EDB3DC707F856CE6B6B7A480A0C81328395DA5C7B18C3057510EC3873D686
310
3F34088C18550F330C39BB3A1BA7051AAC09CA84841A2BD5020AEF55806078A44B0FFD7053A328440C89E1EFC52486BBB8AA8214A99D789CF9E05200300FC927E4FB4D5B375D43103D5527440FB843077C5AA3F5861C8F645F5787F59E95B390B318B55CE45AA638FAA2957BD7248B390B7A7CC51F9C124149C82B8C378810
310
84AB2F42B7B8DD56F413775B8C5999E9FF4471926F8AA236A1AE96B8B3CC434E5839373893369E1FAF30EA395917409EB7F26AF8801C171837A4A6AC9C89E9F9C9B1A58BA30FD6A5EF5DDDCF894B9AD9B6A59C957943A9FCAE2FD5BC4DFE03504B0304140006080800CC70623BAD7543B64E01000033030000300000006662
310
782F41393633353835312D344632462D344230382D423046372D3739314545314133324237412F636E782E786D6CD593CD6EC32010845F0571AD6CE3D48AD20813A9873E410FBD12D82434182C7EAAE6EDBB2424CD25871E7B41D6EC30B3FA84F9E67BB2E40B4234DE8DB46F1925E094D7C6ED479AD3AE5951B2113C789FEE
310
6C943839C1488B4C05DF079FE72A69D8C96C13AAD6B8631503449F83828872B949AC57D26200B826A308D316B4064D6E46FCDA41C05550DC9E483A00797BFD207EFB092A45DE9514C1BBD22178396BD39D891265658C238DEA00936C654E5E433CB65A26D9F6EDB5EBC14EBF49A45CB856E66048291F6939A9A81BB5C89177
310
38143CA680F4AA299D66A042CEB3354A2684DC9D8D178FE0D9B8B41CAAD720F880EE7EF93C0C18769E099ECC04D5A102C8049A8A05632F4DDF376CF1DE0F6BB65C2F8627B65A33C6BB62177CEBBDAD973006829F89F22E814B54F4BC2BE347F8AA8F681390B50FA73F804400B5F542E796F19FF974E7F78DB802FE05E20750
310
4B0304140006080800CC70623BE75B7789680500003C100000340000006662782F41393633353835312D344632462D344230382D423046372D3739314545314133324237412F6F626A656374732E786D6CAD575B8F9B3818FD2B887D06C22499CB8AA1CA655245D5B455A356FB305264C061D8018C6C3393D95FBFC7600890
310
A4CD5EF210B0B1BFEBF98E3F7B1FF6596ABC522E1296DF9BAE3D320D9A872C4AF2F8DE2CE5CEBA358D0FBEC719939D65A691938CDE9B6ADAF4BD98B3B2D05311DD91329583D9D5FC0F438434A7A611A644887B5384CF34233629258BA878B12322891DEFF6B66BD70BFB62634E8AE781D082709A4B588AF91C528CDA28B73F
310
1C998EEF39EABBEFA97FBD6A7C7E9553F9D3D79FE442923C3C523610337627CB87ABE99D359D4CC6D6E4FACAB5E6ABF9D2726FC6A3C5F56271377BB88362213924694B38DD99FE47C48627A1E7D49F5A8BB5E1A74C0A599ED3B0F21F1E56366B89112D681E218F0915D0D6F17AD41FBA2A369DCF6335D62ABBD39779D5DDD1
310
11D4D8DE3CBB96B2E04FB8202E41051754A1AA8E8F76B4C6DFE810B580B1547F4B84911149794252234D024EF8BBE963A95AE27B3D310A9D5C215C7960FAEE415ED75694C6AFB17BCACA5D99A60A9AA65F217B0BFC53292ACB92BF283FAD0D3621576592CB5BED907C2FA8E9DF794E35E97BEA31BED21FEB401ABB94C44839
310
DCACBF0E1C5DA8DA5B2F4DFFD32AD86F543D9E565E7056502E157C00AD2671CD534549AB752FCA9CDA00677A313F04E51B22FF19E57B300579E3C97EB29F682D92935CEC18CF901B7B54FD8C51F362B56FC72FE0B3C1EAE335EDCCBF5AEC39ADB17DC238973F804BA5E6F6BFE7AF1FB32E523BE9F3BD571418E3631DCA4D48
310
5250CF639223210A9446CA30052EDF057BD35F8329C1ECD84552BF0DC8D18BE7BCE23BFE6BD960AB4A7DE79923A103BEBD80F911CBAA2C60DB19B01CF164A5583B772EE6D3FFA56666CBCDA74DC97724A48F9A58967497E489C4D979006FD7A05E227A1EBDD0F737C623387A9C844D3709995625106D157315F8B8392CD4E0
310
A0B9A720C4BE9829CEF37EA1E13111214D53925356365ADA634861B52519DD27A00AEB808EAF0628E6F435519D446F45CF2C9CF5214F0A15B2F6D06B79DA3EE3CBF7F56780D2F4E7EF73A0F5E5B02A38D07DC852C6B7C1FBB6664213E0C39E3EBA7FF4E1AD23EA2829407C85E586727488B751B2DB9502BC7B228A3FD68B6E
310
A65A22397E690AA8D158D7E404EC8CDA235CC3B7D1898680131CEC2CDF2638C65196279577750F15884AEE19F94199155B92B13297978469D4F8D358DF0AEF7631E28DC8F0D9F437D5D39A83B2231A1D52D543813A824EF8D44BCFF2FA6A31BD1E8DAD87F1CCB526B3879935BF59CDADD5C37479BB1CDD4CA7B3556B516589
310
EF352754B706114D9C885EC9131DE6EFEB43D99AFE2391C2F958179413D7CFEF6B1B6DB1E7600F00DE6E5C67454A339A4BA2E0FBA85ED26F045D454F463DBFCE484C2F90F2E5E3666003662ED8F755951A7D1BECD5B30B550B2785C8E7320B7292A4838DDA71BBC863ED7613CAF659337A3354231D4FF4A182A54904C2898C
310
98B28C4AD0CE056CCF332A80986E571EE9DBC305BB5FEB7E509220A58D25CF042D712A806AC0AD0C657FDEF80D2D9CEAA2EE4D1C76F60BFE74219A06527D6F82DF6412526107381E55E353090704D085B52408A8913C4ED159D79BDA71BB4BC506F4831350EB6F975CD22D69BF7AC49B91A2C0A9DDA3D5CA36AD20FC478E37
310
E61844E2352865EBCB61A275A65283CAAA9DD27703B4102F5AF51EF5F573B75CBB5AD38BC845F7A49F82A0966A49C2E3EA5EA0ECD326CD965F1DB402C6FA8B51A4658C5C5E2EC9E214602E55810345408596591009A82E7E7FFACA19EEA299B14A0081A705CB3296EBC14CDF658DCD336EA6D1136881AAEB87B81AB9EE53D5
310
F5EB8BC8362082DA24122F98680A4E7930C01A0079749CEA14382A0783E5EBA5A10F8C098456A03D6A4AEB6BB881E2513747552A5DB22C7EDAF83BD5528081A365F7FF06504B0304140006080000CC70623B000000000000000000000000350000006662782F41393633353835312D344632462D344230382D423046372D37
310
39314545314133324237412F76657274696365732E62696E504B0304140006080800CC70623BF270F1330600000004000000360000006662782F41393633353835312D344632462D344230382D423046372D3739314545314133324237412F747269616E676C65732E62696E636660600000504B0304140006080000CC7062
310
3B000000000000000000000000370000006662782F41393633353835312D344632462D344230382D423046372D3739314545314133324237412F617474726962757465732E62696E504B0304140006080800CC70623B08DA0BD19000000041010000360000006662782F41393633353835312D344632462D344230382D4230
310
46372D3739314545314133324237412F6469726563746F72792E786D6C858F410AC3201045AF22B36F53E9A60B35CBEEBAE80D244E44489C6234F4F835464A48035D0DF398FF9F8AF63D0E6CC63039F212F8F9020C7D47C6792B21C5FE7403D62A1188E2E60C98D7234A5830286103A55745067B9D86B8A3CF9C7F90C11DE6
310
07FB144396D7B6A82D282E9A152AD114D5EF2CB866EEE831B8EEA07A7BB5A8D7D61A2BAAEB7FD5F70921FF497D00504B0304140006080800CC70623BEDD1DC58FD000000A00100003B0000006662782F41393633353835312D344632462D344230382D423046372D3739314545314133324237412F7265736F75726365732F
310
636F72652E786D6C8D504B6E833010BD0A9A6D65B00922041947112427E8052C33A156828DFCA97AFC9A40A576D7CDCCE87D344F8F9FBFE667F689CE6B6B3A6039850C8DB2A336530731DC4903D95970676DF82583CCC8193B5861107C72362E3BA4AC096842428D1D7107A5F7182053CF7474E0D507CE32973124857FE48B
310
540F3961CEF244279DE03EB81420DB9EAC1384436FA353E879B1B182C7A8C75DA3C7F453DF353A1075D537A7BA6464B8F535A99AE14A9A2BBD90E350DD183B5CFABE3AF262350B1EF4FC9351399401471025A527C218A1E53BAB5A5AB765F5469B96525EACF23FA6B88CFF34456DC2A1DCE36E360F82A5202F42F062ED2BAD
310
579969AFDD8A6F504B010214000A0000080000CC70623B3DEE336E79000000790000001B00000000000000000000000000000000006175746F6465736B2D64657369676E2D7061636B6167652E786D6C504B01021400140006080800CC70623BD486FD9CA0000000F40000001300000000000000000000000000B20000005B
310
436F6E74656E745F54797065735D2E786D6C504B01021400140006080800CC70623B853B8169EB0000007C010000080000000000000000000000000083010000636F72652E786D6C504B01021400140006080800CC70623B55019EA25F0000007C000000070000000000000000000000000094020000636E782E786D6C504B
310
01021400140006080800CC70623BDBABAAF470010000D40300000C00000000000000000000000000180300006662782F636F72652E786D6C504B01021400140006080800CC70623B9C113CC27E0000009D0000000B00000000000000000000000000B20400006662782F636E782E786D6C504B01021400140006080800CC70
310
623B7DF2F77C2A010000120200003100000000000000000000000000590500006662782F41393633353835312D344632462D344230382D423046372D3739314545314133324237412F636F72652E786D6C504B01021400140006080800CC70623BAD7543B64E010000330300003000000000000000000000000000D2060000
310
6662782F41393633353835312D344632462D344230382D423046372D3739314545314133324237412F636E782E786D6C504B01021400140006080800CC70623BE75B7789680500003C10000034000000000000000000000000006E0800006662782F41393633353835312D344632462D344230382D423046372D3739314545
310
314133324237412F6F626A656374732E786D6C504B01021400140006080000CC70623B0000000000000000000000003500000000000000000000000000280E00006662782F41393633353835312D344632462D344230382D423046372D3739314545314133324237412F76657274696365732E62696E504B01021400140006
310
080800CC70623BF270F133060000000400000036000000000000000000000000007B0E00006662782F41393633353835312D344632462D344230382D423046372D3739314545314133324237412F747269616E676C65732E62696E504B01021400140006080000CC70623B0000000000000000000000003700000000000000
310
000000000000D50E00006662782F41393633353835312D344632462D344230382D423046372D3739314545314133324237412F617474726962757465732E62696E504B01021400140006080800CC70623B08DA0BD1900000004101000036000000000000000000000000002A0F00006662782F41393633353835312D344632
310
462D344230382D423046372D3739314545314133324237412F6469726563746F72792E786D6C504B01021400140006080800CC70623BEDD1DC58FD000000A00100003B000000000000000000000000000E1000006662782F41393633353835312D344632462D344230382D423046372D3739314545314133324237412F7265
310
736F75726365732F636F72652E786D6C504B0506000000000E000E0080040000641100000000
  0
XRECORD
  5
1F8
102
{ACAD_REACTORS
330
1F7
102
}
330
1F7
100
AcDbXrecord
280
     1
 70
     1
 90
429727718
  1
30362254-06B7-45E0-A893-8CFA70E3D6BC
310
504B03040A0000080000CC70623B3DEE336E79000000790000001B0000006175746F6465736B2D64657369676E2D7061636B6167652E786D6C3C3F786D6C2076657273696F6E3D22312E302220656E636F64696E673D227574662D3822203F3E3C666F726D6174733E3C666F726D61743E687474703A2F2F736368656D612E
310
6175746F6465736B2E636F6D2F64657369676E2D7061636B6167652F323030393C2F666F726D61743E3C2F666F726D6174733E504B0304140006080800CC70623BD486FD9CA0000000F4000000130000005B436F6E74656E745F54797065735D2E786D6C7D8EC10E82300C865F65E91D8A1E8C310C0EEA1BF002731658846E
310
D98AC1B77784ABF1D8FE5FBFBF75BBCE937A534CCEB38643598122B6FEE978D0B0485F9C41B54DDD7D022595594E1A469170414C76A4D9A4D207E29CF43ECE46F218070CC6BECC4078ACAA135ACF422C856C0E68EA1BF5669944DDD7BCDE7B1F8E415D77AECB980613C2E4AC91FC167A2B244592486606FC29C8FD7F045B9A
310
EF7053A7E60B504B0304140006080800CC70623B1EC5D7A3EB0000007C01000008000000636F72652E786D6C8D90416EC3201045AF82665B6103C6756C6122AB4D4ED00B204C5C94182C03558F5F9C3852BBEB6A467FFE9B197D71FC9E6FE8CBACC17AD7032D0820E3B41FAD9B7A48F1820F808E52ACDEC75F36404ECDA687
310
4D0629A6D5A76597B477D1B89855E747B38B2A041301E95B6E7A08FAD3CCAA50296647B8168BD2573599823EBB0CA76447F43862C7BCCF5EAC59410E4DDD9C7973C2755553CCCFA4C603E3040F1565ED3B1FDE4E432BCA0D9622DAF9795FAF464533826484B498524CD807E51D79ED187F21878E10516EF63F505AC67F42C9
310
BA58B1FDDD071640D2FCC87D2045B96591CB3DA85CB7DCE40F504B0304140006080800CC70623B55019EA25F0000007C00000007000000636E782E786D6C4DCB3B0E80201045D1AD90E915ED2CF8AC45050C11660C8261F98AB1B07AC9C97D42D718D865D3E909258CFD00CCE24AC6E326A164D74DC0B4128928FF32603847
310
2BA13128B1252AC747C6BAB984FC68F0B87FE8960A5C09FE86CFB69FBA01504B0304140006080800CC70623B8C9102E971010000D40300000C0000006662782F636F72652E786D6CC5535B6E833010BC8AE5DF0A6C08340F1947A84D4ED00B38C6A128602363A31CBFCB234A53A551FA553EC09AD9F5CE8C31DB9E9B1AF5CA
310
7695D1198E428A91D2D214952E33ECDD315861B4E5CC1AE3BE9561A445A3323CC098B3D21ADFCE9034DA29ED00D5A6503328BA4E398C640D8B0C77F253352214DE4145770A5B214FA2546114020D759C75CE8200340D19DE981F0F6746269C33EFAB6266AB02A655C74A59CCF365BADC27CB5D902ED22848F6340DF238A141
310
BE88E2F57B92BFEDF23523433367AE6A2EEAA455C2A902F398D2751045018D3FA264435F3771F242571B4A1919CA6F9A7C5B3CD9E42BED16F12C776AEB308F40C848FC700B1139D4891EF410CEC810227CC6846F8386402064270EF5C5C709A05E49676C024C61FC95EA45ED154CA5211D1FF4FB8291A913A68E9B83EBBB33
310
E2A7673CDE118E5AE8124C0807CB8377834E366998436B950D7A7746DAD846D4CFD978E0F04FD455FC5D49D2D4C6FE9722321F10997F0F32DC47FE05504B0304140006080800CC70623BFFEA85907E0000009D0000000B0000006662782F636E782E786D6C4DCCD10A83201886E15B91FFDC95D95A811AB6F23E625948A6C3
310
E9D8E5AF46073BFAE0E1E365ED67B3E8ADC3CB78C7815C7240DA3DFC64DCC221C519D7805AC182F7F1EF06C88D9BE6703008B6049F9E274D7A1E938DBB5AE3D6131B2589BA0D3D965551E0B2EA732C9B9A624AAEB41E3A557677029960D9AFB4EF11165F504B0304140006080800CC70623B4FEEA4082C0100001202000031
310
0000006662782F39464131463745442D413632322D343644302D413938332D3331353338454246344243312F636F72652E786D6C8D515B6EC32010BC0AE2AB55850DD871ED0813254D72825EC00192A2C460F1A872FC42ED48ED5F7E00CDCECCCEB26C731F6FE05B39AFADE921293004CA082BB5B9F43086336A21D870E6AC
310
0D7F68109861543DCC30E4ECE26C9C164858139409093556AA051CBC570102714B8F1E7AF1A5C6A11862480C7F2DA6415C878B2A4891CA89C7990F2E050073937C42DE1DB7E4F87ED8A36D4329AA9B3D46DBAEAD504556557BD81DEBDD0761E52CE42C462D17B996298E3E6BE59E35C962CE821E1FF18553435012728A7187
310
0841987E927A8D9B35ADDF70BBC6989599FE4F1427F9A4286A132ABAC49D651EF234CD5CE04CDA78BA3DC2A8FB645D00B9DF8B57E215725C60BCA2A463E54C4CE327C7A65E1C7DB02E7DEFCBF594B864C5CA6CDBD49C957943E9FA5D5FBAF336F90F504B0304140006080800CC70623BAD7543B64E01000033030000300000
310
006662782F39464131463745442D413632322D343644302D413938332D3331353338454246344243312F636E782E786D6CD593CD6EC32010845F0571AD6CE3D48AD20813A9873E410FBD12D82434182C7EAAE6EDBB2424CD25871E7B41D6EC30B3FA84F9E67BB2E40B4234DE8DB46F1925E094D7C6ED479AD3AE5951B2113C
310
789FEE6C943839C1488B4C05DF079FE72A69D8C96C13AAD6B8631503449F83828872B949AC57D26200B826A308D316B4064D6E46FCDA41C05550DC9E483A00797BFD207EFB092A45DE9514C1BBD22178396BD39D891265658C238DEA00936C654E5E433CB65A26D9F6EDB5EBC14EBF49A45CB856E66048291F6939A9A81BB5
310
C8917738143CA680F4AA299D66A042CEB3354A2684DC9D8D178FE0D9B8B41CAAD720F880EE7EF93C0C18769E099ECC04D5A102C8049A8A05632F4DDF376CF1DE0F6BB65C2F8627B65A33C6BB62177CEBBDAD973006829F89F22E814B54F4BC2BE347F8AA8F681390B50FA73F804400B5F542E796F19FF974E7F78DB802FE05
310
E207504B0304140006080800CC70623B16AB87BA640500003C100000340000006662782F39464131463745442D413632322D343644302D413938332D3331353338454246344243312F6F626A656374732E786D6CAD575B6FA33818FD2B887DE6924B3BED8A326A92B68A663B534DD4D13E548A0C38942D60649B369D5FBFC7
310
600890A493BDE42160637FD7F31D7FF63E6FB3D478A55C242CBF3247B66B1A340F5994E4F19559CA8D75611A9F7D8F33263BCB4C232719BD32D5B4E97B316765A1A722BA21652A07B3B7B33F0D11D29C9A46981221AE4C113ED38CD8A4942CA2E2C58E882476BCD9DA23BB5ED8171B73523C0F841684D35CC252CCE79062D4
310
468DFA43D7747CCF51DF7D4FFDEB5593E3AB9CCA9FBEFE241792E4E19EB28198C968BAB8199F5D5A67D3E9C49A9E8F47D6EC76B6B0469F26EEFC7C3EBFBCBEB98462213924694B38DD98FE1D62C393D073EA4FADC5DAF04326852CCF6958F90F0F2B9BB5C48816348F90C7840A68EB78EDF68723159BCEE7891A6B95DDE9D3
310
BCEAEEE8086A6C6F9E5D4B59F0175C10A7A0820BAA5055C7473B5AE3CFDD452D602CD5DF12616444529E90D448938013FE6EFA58AA96F85E4F8C42275708571E98FE6827AF6B2B4AE3D7D83D64E5A64C53054DD3AF90BD06FEA9149565C94FCA0F6B834DC85599E4F2423B24DF0B6AFA979E534DFA9E7A4CC6FA631D486393
310
921829879BF5D781A373557BCB85E97FB90DB62B558F8795179C15944B051F40AB495CF35451D26A4727654E6D8033BD98EF82F21D91FF8AF2DD9982BCF1643BDD4EB516C9492E368C67C88DED563FC36D5EACF66DFF057C3658BDBFA69DF9578B3DA735B64F18C7F20770A9D45CFCF7FCF563D6456A277DBEF78A02637CA2
310
43B90A490AEAB94F72244481D24819A6C0E59B606BFA4B3025981DBB48EAB701D97BF19C577CC77F2D1B6C55A9EF3C732474C0B727303F625995056C3B02963D9EAC146BE78EC5FCEC7FA999EBC5EACBAAE41B12D27B4D2C0BBA49F244E2ECDC81B76B502F113D8F5EE8FB1BE3111CDD4FC2AA9B844CAB1288B68AB90A7CDC
310
1C166AB0D3DC5310625FCC14E779BFD0709F8890A629C9292B1B2DED31A4B0DA928CEE135085754027E3018A397D4D5427D15BD1330B677DC8934285AC3DF45A9EB68FF8F2B8FC0A509AFEECFD0FF2DE25CC6047F7214B195F07EFEB9A094D800F7BFAE8FED187B78EA8A3A400F115961BCAD1215E47C966530AF0EE8128FE
310
58CEBB996A8964FFA529A046635D9353B0336A8F700DDF46271A024E70B0B37C9DE01847591E54DED53D54202AB947E4076556AC49C6CA5C9E1226B7F1A7B1BE15DEED62C41B91E1B3E9AFAAA735036547343A925075041DF0A9979E893B391F8FCFA6967B3EFB644DCF6E5CEBFAE272625DCC6FAF3FB93793C5F90CE1EF57
310
407342756B10D1C489E8953CD1617E5CEECAD6F4EF8914CE5D5D504E5C3F1F9736DA62CFC11E00BCDDB8CC8A9466349744C1F75EBDA4DF09BA8A9E8C7A7E9991989E20E5DBDD6A6003664ED8F7A04A8DBE0DF6EAD9B9AA858342E47399053949D2C146EDB85DE4B176BB0965FBAC19BD19AA918E27FA50C1D22402E144464C
310
59462568E704B6E71915404CB72B8FF4EDE184DDAF753F284990D2C6926782963815403548A70C657FDEF80D2D9CEAA2AE4C1C76F60BFE74219A06527D6582DF6412526107381E55E353090704D085B52408D0933C4ED159D79BDA71BB4BC506F4831350EB6F979CD22D69BF7AC49B91A2C0A9DDA3D5CA36AD20FC478E37E6
310
1844E2352865EBCB6EA275A652E3836BE04EFB400BF1A2556F515F1FBB35B2AB35BD889C744FFA1004B5544B121E57F70215746DD2F5E2C1412B602CBF19455AC6C8E5E9922C4E01E65215385004546899059180EAFCF7A707CE7017CD8CDB0410789AB32C63B91E5CEBBBACB17AC6CD347A022D5075FD106377347AAABA7E
310
7D11590744509B44E205134DC1290F06580320F78E537D3D73540E06CB970B431F185308AD40BBD794D6D77003C5A36E8EAA54BA64597CD8F83BD552A080A365F7FF06504B0304140006080000CC70623B000000000000000000000000350000006662782F39464131463745442D413632322D343644302D413938332D3331
310
353338454246344243312F76657274696365732E62696E504B0304140006080800CC70623BF270F1330600000004000000360000006662782F39464131463745442D413632322D343644302D413938332D3331353338454246344243312F747269616E676C65732E62696E636660600000504B0304140006080000CC70623B
310
000000000000000000000000370000006662782F39464131463745442D413632322D343644302D413938332D3331353338454246344243312F617474726962757465732E62696E504B0304140006080800CC70623B08DA0BD19000000041010000360000006662782F39464131463745442D413632322D343644302D413938
310
332D3331353338454246344243312F6469726563746F72792E786D6C858F410AC3201045AF22B36F53E9A60B35CBEEBAE80D244E44489C6234F4F835464A48035D0DF398FF9F8AF63D0E6CC63039F212F8F9020C7D47C6792B21C5FE7403D62A1188E2E60C98D7234A5830286103A55745067B9D86B8A3CF9C7F90C11DE607
310
FB144396D7B6A82D282E9A152AD114D5EF2CB866EEE831B8EEA07A7BB5A8D7D61A2BAAEB7FD5F70921FF497D00504B0304140006080800CC70623B0D6EF93BFE000000A00100003B0000006662782F39464131463745442D413632322D343644302D413938332D3331353338454246344243312F7265736F75726365732F63
310
6F72652E786D6C8D50596E833010BD0A9ADFCA60B334011947A8694ED00B586642AC041B79A97AFC9A40A5F6AF3F33A3B7689E1E3F7DCD8FEC139DD7D6F4C0720A191A65476DA61E62B892236427C19DB5E1970C322367EC618541F0C9D9B8EC90B226A009093576C41D94DE63804C3DD2D18357379C652E63480A7FCF17A9
310
EE72C29CE5894E3AC17D702940B63D59270887DE46A7D0F36263058F518FBB468FE9A7BE6A7420864373B8D4873369AA8691FA421B3294352543C5CAF65C0F6FEF43CB8BD52C78D0F34F46E550061C419494B6843142CB0F5677F4B52BEB177AEC28E5C52AFF638ACBF84F53D42654E51E77B379102C05791282176B5F693D
310
CB4C7BED567C03504B010214000A0000080000CC70623B3DEE336E79000000790000001B00000000000000000000000000000000006175746F6465736B2D64657369676E2D7061636B6167652E786D6C504B01021400140006080800CC70623BD486FD9CA0000000F40000001300000000000000000000000000B20000005B
310
436F6E74656E745F54797065735D2E786D6C504B01021400140006080800CC70623B1EC5D7A3EB0000007C010000080000000000000000000000000083010000636F72652E786D6C504B01021400140006080800CC70623B55019EA25F0000007C000000070000000000000000000000000094020000636E782E786D6C504B
310
01021400140006080800CC70623B8C9102E971010000D40300000C00000000000000000000000000180300006662782F636F72652E786D6C504B01021400140006080800CC70623BFFEA85907E0000009D0000000B00000000000000000000000000B30400006662782F636E782E786D6C504B01021400140006080800CC70
310
623B4FEEA4082C0100001202000031000000000000000000000000005A0500006662782F39464131463745442D413632322D343644302D413938332D3331353338454246344243312F636F72652E786D6C504B01021400140006080800CC70623BAD7543B64E010000330300003000000000000000000000000000D5060000
310
6662782F39464131463745442D413632322D343644302D413938332D3331353338454246344243312F636E782E786D6C504B01021400140006080800CC70623B16AB87BA640500003C1000003400000000000000000000000000710800006662782F39464131463745442D413632322D343644302D413938332D3331353338
310
454246344243312F6F626A656374732E786D6C504B01021400140006080000CC70623B0000000000000000000000003500000000000000000000000000270E00006662782F39464131463745442D413632322D343644302D413938332D3331353338454246344243312F76657274696365732E62696E504B01021400140006
310
080800CC70623BF270F133060000000400000036000000000000000000000000007A0E00006662782F39464131463745442D413632322D343644302D413938332D3331353338454246344243312F747269616E676C65732E62696E504B01021400140006080000CC70623B0000000000000000000000003700000000000000
310
000000000000D40E00006662782F39464131463745442D413632322D343644302D413938332D3331353338454246344243312F617474726962757465732E62696E504B01021400140006080800CC70623B08DA0BD190000000410100003600000000000000000000000000290F00006662782F39464131463745442D413632
310
322D343644302D413938332D3331353338454246344243312F6469726563746F72792E786D6C504B01021400140006080800CC70623B0D6EF93BFE000000A00100003B000000000000000000000000000D1000006662782F39464131463745442D413632322D343644302D413938332D3331353338454246344243312F7265
310
736F75726365732F636F72652E786D6C504B0506000000000E000E0080040000641100000000
  0
XRECORD
  5
1FB
102
{ACAD_REACTORS
330
173
102
}
330
173
100
AcDbXrecord
280
     1
 70
     0
 90
1673772943
  1
ECE7A1D2-D628-4531-984C-D00F80459256
310
504B03040A0000080000CC70623B3DEE336E79000000790000001B0000006175746F6465736B2D64657369676E2D7061636B6167652E786D6C3C3F786D6C2076657273696F6E3D22312E302220656E636F64696E673D227574662D3822203F3E3C666F726D6174733E3C666F726D61743E687474703A2F2F736368656D612E
310
6175746F6465736B2E636F6D2F64657369676E2D7061636B6167652F323030393C2F666F726D61743E3C2F666F726D6174733E504B0304140006080800CC70623BD486FD9CA0000000F4000000130000005B436F6E74656E745F54797065735D2E786D6C7D8EC10E82300C865F65E91D8A1E8C310C0EEA1BF002731658846E
310
D98AC1B77784ABF1D8FE5FBFBF75BBCE937A534CCEB38643598122B6FEE978D0B0485F9C41B54DDD7D022595594E1A469170414C76A4D9A4D207E29CF43ECE46F218070CC6BECC4078ACAA135ACF422C856C0E68EA1BF5669944DDD7BCDE7B1F8E415D77AECB980613C2E4AC91FC167A2B244592486606FC29C8FD7F045B9A
310
EF7053A7E60B504B0304140006080800CC70623BD9DDAED0EC0000007C01000008000000636F72652E786D6C8D90416EC3201045AF82665B61836D9CD8C2444DD39CA01740405C94182C03558F5F9C3852BBEB6A467FFE9B197D7EF89E6EE8CB2CC17A37002D0820E394D7D68D03A478C17B4007C117EFE32F1B20272733C0
310
2A83E0E3E2D3BC49CABB685CCCAAF3DA6CA20CC14440EA969B0182FA34932C648AD911AEC52CD5558EA6A0CF2EC329598D1E47ACCEFBECC59A050463A7EA5833865FEBDD0E37353BE3EE8DBDE3F6786A48D375FBF6CC78B9C282473B3DEFABC5C86834888A900E538A49F5419B9EB47DD5BC907D4F082F57FB1F28CDFA9F50
310
B22ED6D5F6EE030B20687EE43E10BC5CB3C8E51E54AE6B6EE207504B0304140006080800CC70623B55019EA25F0000007C00000007000000636E782E786D6C4DCB3B0E80201045D1AD90E915ED2CF8AC45050C11660C8261F98AB1B07AC9C97D42D718D865D3E909258CFD00CCE24AC6E326A164D74DC0B4128928FF326038
310
472BA13128B1252AC747C6BAB984FC68F0B87FE8960A5C09FE86CFB69FBA01504B0304140006080800CC70623BA24EB22D72010000D40300000C0000006662782F636F72652E786D6CC5535B6E833010BC8AE5DF0A6C5E49888CA3A6694ED00B38E05014B091B1518EDFE511A5A9D228FD2A1F60CDEC7A67C6986DCE4D8D7A
310
69BA4AAB0C073EC548AA5C17952A33ECECD15B61B4E1CC686DBF9561A44423333CC098B3D268D7CE50AE9595CA02AA74216750749DB418E5352C32DCE59FB211BE70162ABA93DF8AFC244AE9073ED050C759670D0840D390E18DF9F1706664C23973AE2A66B62A605A75ACA4C13C4976E1364A12EF355A2EBD384AF65EFA96
310
BC7B8BED2EA6719AAE16FB8491A199335B351775B991C2CA02F390D2D40B028F861F41BCA68B7518BFD0D59A524686F29B26D7164F36B94AD9289CE54E6D1DE6010819891F6E21228B3AD1831EC219194284CF98F06DD01008846CC5A1BEF83801D4CBDC6A1303536877A57A513B0953A94FC707FDBE6064EA84A9E3E6E0FA
310
EE8CF0E9198F7784A316AA0413C2C2F2E0ECA0934D1AE6D05A69BCDE9E91D2A611F573361E38FC1375157F5752AE6B6DFE4B11990F88CCBF0719EE23FF02504B0304140006080800CC70623B408A7D3B7C0000009D0000000B0000006662782F636E782E786D6C4DCCD10A83201886E15B91FFDC552A92A0064DBC8F581632
310
D3703A76F9ABD1C18E3E78F878E5F0D9027ABBFCF2292AE86E2D20171F69F6715550CB827B40839639A5F2770314A7CD293819B45C73AAFB45B35BA61ACAA1C1C7E7855C58C15BC331339661262CC762340413D68D77DA5B42298546CBE6573AF60CEB2F504B0304140006080800CC70623B449FB9BD290100001202000031
310
0000006662782F36394639363044362D344446342D343946362D394244322D3234314243333846323333332F636F72652E786D6C8D515B6EC32010BC0AE22B55850D98B871848994463E412FE002495162B07854397EA176A4F62F3F2C9A9D991D587EB84F37F0AD7D30CEF6905418026DA553C65E7A98E219ED203808EE9D
310
8B7F6810D871D23D2C3014FCE25D9A57483A1BB58D19B54EE9151C43D0110279CB971E06F9A5A7B11A53CC8C70ADE6515EC78BAE4895DB992778883E0700CB907242D17643D7E2538BD869608875438BBAE38922CAC8F1BDD90DB4691A5E2F42C153326A951B95E398B3D1FE599322163C9AE9115F7A3D46ADA0A018778810
310
84E907617BDCEE297BC5BB3DC6BC2EF47FA234AB2745C9D8D8D035EE220B50105E2F0DC1954B9FB747187D9F9D8FA0CCDB042D5FA0C015C65B42DF78BD10F3F3B363CB56C7109DCFDFBBB97E662ED92EB62D13BC2E1BCAE5777DB9966D8A1F504B0304140006080800CC70623BAD7543B64E01000033030000300000006662
310
782F36394639363044362D344446342D343946362D394244322D3234314243333846323333332F636E782E786D6CD593CD6EC32010845F0571AD6CE3D48AD20813A9873E410FBD12D82434182C7EAAE6EDBB2424CD25871E7B41D6EC30B3FA84F9E67BB2E40B4234DE8DB46F1925E094D7C6ED479AD3AE5951B2113C789FEE
310
6C943839C1488B4C05DF079FE72A69D8C96C13AAD6B8631503449F83828872B949AC57D26200B826A308D316B4064D6E46FCDA41C05550DC9E483A00797BFD207EFB092A45DE9514C1BBD22178396BD39D891265658C238DEA00936C654E5E433CB65A26D9F6EDB5EBC14EBF49A45CB856E66048291F6939A9A81BB5C89177
310
38143CA680F4AA299D66A042CEB3354A2684DC9D8D178FE0D9B8B41CAAD720F880EE7EF93C0C18769E099ECC04D5A102C8049A8A05632F4DDF376CF1DE0F6BB65C2F8627B65A33C6BB62177CEBBDAD973006829F89F22E814B54F4BC2BE347F8AA8F681390B50FA73F804400B5F542E796F19FF974E7F78DB802FE05E20750
310
4B0304140006080800CC70623B8D05915C650500003B100000340000006662782F36394639363044362D344446342D343946362D394244322D3234314243333846323333332F6F626A656374732E786D6CAD575B6FA33814FE2B887D06429276DA1565D4266D158D3A339A6846FB502932E050B66023DB74D2FDF5FB190C01
310
9276B2973C046C8ECFF53B17071F77456EBD502133CEAE6CDF9DD81665314F32965ED995DA3A17B6F5310C04E7AA47665B8C14F4CAD6DB7618A48257A5D94AE89654B91AEDDEDDFC61C998326A5B714EA4BCB265FC440BE2924AF184CA6737218AB8E976E7FA6E4338649B0A523E8D98964450A6A029F619B8588D52FE7039
310
B1BD30F0F4F730D0FF866AF6369557DB33949F31A9088B0F848DD8CCFCF9F2767A76E99CCDE733677E3EF59D9BBB9BA5E37F984D16E78BC5E5F5ED25044B25C0C96822E8D60EEFE11B91C581D77CEA34368A1F5329E68CD1B8B61F16D63A1B8E092D294B10C78C4A48EB593D192E7DED9BDEE7995E1B91FDEDD3ACEA9FE831
310
6A756F9F7D4D79F4274C90A7A04248AA51D5F8C718DAE06FB2F75AC4796EBE65D22A88A22223B995679120E2D50E41AA49C260C046A35368846B0BECD0DFF3EBEB8AD4F835768F69B9ADF25C43D30E6B646F807FAA64AD59F61715C7A54127C4AACA98BA3006A9D792DAE165E0D59B61A01FB3A9F9D838D2DAE62445C86166
310
F37564E842E7DE6A69879FEEA2DD5AE7E371E1A5E025154AC307D06A03D73EB5978C58FFA4C8E9033066E0F3BD53BEC1F39F91BE7B55103791EDE6BBB991A2046172CB4581D8B893FA674DDA17A77B3B7C413D1B511FD2743BFF8A38F03A658705E3ADF8015C3A3417FF3D7E439FF591DA0B5F18BC20C1B8981957AE6392A3
310
F43C640C01D1A0B4728E2DD4F26DB4B3C3152A252A3B4E913CEC1C72F012782FF88EFF8637AA552DBEF76408E8A8DE9E50F9E1CB3A2DA0DB1B6039A893B56063DC5B3E3FFB5F72E67AB9FEB4AEC496C4F4C1149625DD662C53E89D7BF0F6151A046260D1337DFDC94502430F83B0EE07A130A224BCAD7DAE1D9FB6CD422FF6
310
920702629C4BB9AE79C12F243C6432A6794E18E5552BA56B431AAB5D91317302B2B071E86C3A42B1A02F999E24061403B5D0EB639195DA655DD3EBEAB4FB862DDF579F014AD0E73C22F99E28DA57FB98E75C6CA2D74D53086D600F4786E0FE3144B771A8A7B900F03594DB8A633CBC49B2EDB69228BB479CF863B5E807AAAB
310
23872F6DFEB4129B949CA33823F58830E86D65621E10047D9DB34D862E8EAC3C2ABC2F7B2C40D67CDFE01F5545B92105AF983AC54D93D69E56FB8E797F88913F898A9FEC705D3F9D1B54EC8426FB500D40A03BD0119B06E1B95DDC7EB8F6975367793EBD70E66733DFB9BC982F9CE564727731999F5D4ECFCE3B8D6A4DC2A0
310
6D50FD148437D110834A64C6CDDF57FBACB5C307A2A477DFE4939736CFEF2B175371E0E10CF0DD1D5C15654E0BCA14D1E87DD02FF93782A162C0A3D95F1524A52770F972BF1EE9809D13CE7DD599467F8ECE9ADD85CE85A34CD45355448C64F9E8A031DC2D596ACC6E5DD93D9B82DE2EF5CAF81363A8E47996A0DE24564A79
310
4115AACE09C55E14540231FDA13C319787134EBF34E3A022514E5B4D9E0826E25C02D5805B15ABE1BEF51B26383D445DD9E875EE33FE4C22DA16427D65A3BCA92CA6D28DD01DF5DC53330704308475351050232CCD31583787BA75774AFB06E5070DD0C8EF484E19968C5D83BA5B90B244D31E54D55A372320FE4786B7EA58
310
44E135AA5467CB7EA333A61683CC6A8C3257034C10CF46F40EF9F5BE59BE5BD30C3C72D235E95D10345C1D45445A5F0BB47E46A5EBE5570F9380B5FA629579952296A773720405982B9DE04011506178964401AA8BDF1FBF0A8EAB6861DD6580C0E38217056766716DAEB2D6FA0917D3E4116581EADB879C4E7CFFB11EFACD
310
3D641311495D92C8676CB409A72D18610D803CE8A626049E8EC1887CB5B44CC39883690DDA8399B4B9855B481E7D71D4A9D22F96E5BB73BF5793020C02137BF837504B0304140006080000CC70623B000000000000000000000000350000006662782F36394639363044362D344446342D343946362D394244322D32343142
310
43333846323333332F76657274696365732E62696E504B0304140006080800CC70623BF270F1330600000004000000360000006662782F36394639363044362D344446342D343946362D394244322D3234314243333846323333332F747269616E676C65732E62696E636660600000504B0304140006080000CC70623B0000
310
00000000000000000000370000006662782F36394639363044362D344446342D343946362D394244322D3234314243333846323333332F617474726962757465732E62696E504B0304140006080800CC70623B08DA0BD19000000041010000360000006662782F36394639363044362D344446342D343946362D394244322D
310
3234314243333846323333332F6469726563746F72792E786D6C858F410AC3201045AF22B36F53E9A60B35CBEEBAE80D244E44489C6234F4F835464A48035D0DF398FF9F8AF63D0E6CC63039F212F8F9020C7D47C6792B21C5FE7403D62A1188E2E60C98D7234A5830286103A55745067B9D86B8A3CF9C7F90C11DE607FB14
310
4396D7B6A82D282E9A152AD114D5EF2CB866EEE831B8EEA07A7BB5A8D7D61A2BAAEB7FD5F70921FF497D00504B0304140006080800CC70623BCA768048FE000000A00100003B0000006662782F36394639363044362D344446342D343946362D394244322D3234314243333846323333332F7265736F75726365732F636F72
310
652E786D6C8D50596E833010BD0A9ADFCA60D600328E9AA639412F609909B1126CE4A5EAF16B0295DABFFECC8CDEA2797AECF8353F924FB44E193D409E5248504B332A3D0D10FC95B4901C39B3C6F85F3248B49871801506CE266BC2B243D2688FDA47549B11775038871E12F988C7004EDE7016A9083E2ADC3D5D84BC8B09
310
D33C8D74D471E6BC8D0192EDC93A815B742658898E651BCB59086ADC356A8C3FD555A1055ED7E7E254D615792D0F075295F585746FF53B694EE78A565DD736979A65AB9933AFE69F8CD2A2F038022F28ED489E135A7CE4554F9BBEA85E68DB53CAB255FEC71496F19FA6A0B42F8B3DEE6673C0F318E4497096AD7DC5F52C33
310
EEB55BFE0D504B010214000A0000080000CC70623B3DEE336E79000000790000001B00000000000000000000000000000000006175746F6465736B2D64657369676E2D7061636B6167652E786D6C504B01021400140006080800CC70623BD486FD9CA0000000F40000001300000000000000000000000000B20000005B436F
310
6E74656E745F54797065735D2E786D6C504B01021400140006080800CC70623BD9DDAED0EC0000007C010000080000000000000000000000000083010000636F72652E786D6C504B01021400140006080800CC70623B55019EA25F0000007C000000070000000000000000000000000095020000636E782E786D6C504B0102
310
1400140006080800CC70623BA24EB22D72010000D40300000C00000000000000000000000000190300006662782F636F72652E786D6C504B01021400140006080800CC70623B408A7D3B7C0000009D0000000B00000000000000000000000000B50400006662782F636E782E786D6C504B01021400140006080800CC70623B
310
449FB9BD290100001202000031000000000000000000000000005A0500006662782F36394639363044362D344446342D343946362D394244322D3234314243333846323333332F636F72652E786D6C504B01021400140006080800CC70623BAD7543B64E010000330300003000000000000000000000000000D20600006662
310
782F36394639363044362D344446342D343946362D394244322D3234314243333846323333332F636E782E786D6C504B01021400140006080800CC70623B8D05915C650500003B10000034000000000000000000000000006E0800006662782F36394639363044362D344446342D343946362D394244322D32343142433338
310
46323333332F6F626A656374732E786D6C504B01021400140006080000CC70623B0000000000000000000000003500000000000000000000000000250E00006662782F36394639363044362D344446342D343946362D394244322D3234314243333846323333332F76657274696365732E62696E504B010214001400060808
310
00CC70623BF270F13306000000040000003600000000000000000000000000780E00006662782F36394639363044362D344446342D343946362D394244322D3234314243333846323333332F747269616E676C65732E62696E504B01021400140006080000CC70623B00000000000000000000000037000000000000000000
310
00000000D20E00006662782F36394639363044362D344446342D343946362D394244322D3234314243333846323333332F617474726962757465732E62696E504B01021400140006080800CC70623B08DA0BD190000000410100003600000000000000000000000000270F00006662782F36394639363044362D344446342D
310
343946362D394244322D3234314243333846323333332F6469726563746F72792E786D6C504B01021400140006080800CC70623BCA768048FE000000A00100003B000000000000000000000000000B1000006662782F36394639363044362D344446342D343946362D394244322D3234314243333846323333332F7265736F
310
75726365732F636F72652E786D6C504B0506000000000E000E0080040000621100000000
  0
XRECORD
  5
3FE4
102
{ACAD_REACTORS
330
3FE3
102
}
330
3FE3
100
AcDbXrecord
280
     1
102
DISPLAYNAME
  1
Metric50
102
FLAGS
 90
        0
  0
CELLSTYLEMAP
  5
3FC1
102
{ACAD_REACTORS
330
1A23
102
}
330
1A23
100
AcDbCellStyleMap
 90
        3
300
CELLSTYLE
  1
TABLEFORMAT_BEGIN
 90
        5
170
     1
 91
        0
 92
    32768
 62
   257
 93
        1
300
CONTENTFORMAT
  1
CONTENTFORMAT_BEGIN
 90
        0
 91
        0
 92
      512
 93
        0
300

 40
0.0
140
1.0
 94
        5
 62
     0
340
11
144
6.0
309
CONTENTFORMAT_END
171
     1
301
MARGIN
  1
CELLMARGIN_BEGIN
 40
1.5
 40
1.5
 40
1.5
 40
1.5
 40
0.18
 40
0.18
309
CELLMARGIN_END
 94
        6
 95
        1
302
GRIDFORMAT
  1
GRIDFORMAT_BEGIN
 90
        0
 91
        1
 62
     0
 92
       -2
340
14
 93
        0
 40
1.125
309
GRIDFORMAT_END
 95
        2
302
GRIDFORMAT
  1
GRIDFORMAT_BEGIN
 90
        0
 91
        1
 62
     0
 92
       -2
340
14
 93
        0
 40
1.125
309
GRIDFORMAT_END
 95
        4
302
GRIDFORMAT
  1
GRIDFORMAT_BEGIN
 90
        0
 91
        1
 62
     0
 92
       -2
340
14
 93
        0
 40
1.125
309
GRIDFORMAT_END
 95
        8
302
GRIDFORMAT
  1
GRIDFORMAT_BEGIN
 90
        0
 91
        1
 62
     0
 92
       -2
340
14
 93
        0
 40
1.125
309
GRIDFORMAT_END
 95
       16
302
GRIDFORMAT
  1
GRIDFORMAT_BEGIN
 90
        0
 91
        1
 62
     0
 92
       -2
340
14
 93
        0
 40
1.125
309
GRIDFORMAT_END
 95
       32
302
GRIDFORMAT
  1
GRIDFORMAT_BEGIN
 90
        0
 91
        1
 62
     0
 92
       -2
340
14
 93
        0
 40
1.125
309
GRIDFORMAT_END
309
TABLEFORMAT_END
  1
CELLSTYLE_BEGIN
 90
        1
 91
        1
300
_TITLE
309
CELLSTYLE_END
300
CELLSTYLE
  1
TABLEFORMAT_BEGIN
 90
        5
170
     1
 91
        0
 92
        0
 62
   257
 93
        1
300
CONTENTFORMAT
  1
CONTENTFORMAT_BEGIN
 90
        0
 91
        0
 92
      512
 93
        0
300

 40
0.0
140
1.0
 94
        5
 62
     0
340
11
144
4.5
309
CONTENTFORMAT_END
171
     1
301
MARGIN
  1
CELLMARGIN_BEGIN
 40
1.5
 40
1.5
 40
1.5
 40
1.5
 40
0.18
 40
0.18
309
CELLMARGIN_END
 94
        6
 95
        1
302
GRIDFORMAT
  1
GRIDFORMAT_BEGIN
 90
        0
 91
        1
 62
     0
 92
       -2
340
14
 93
        0
 40
1.125
309
GRIDFORMAT_END
 95
        2
302
GRIDFORMAT
  1
GRIDFORMAT_BEGIN
 90
        0
 91
        1
 62
     0
 92
       -2
340
14
 93
        0
 40
1.125
309
GRIDFORMAT_END
 95
        4
302
GRIDFORMAT
  1
GRIDFORMAT_BEGIN
 90
        0
 91
        1
 62
     0
 92
       -2
340
14
 93
        0
 40
1.125
309
GRIDFORMAT_END
 95
        8
302
GRIDFORMAT
  1
GRIDFORMAT_BEGIN
 90
        0
 91
        1
 62
     0
 92
       -2
340
14
 93
        0
 40
1.125
309
GRIDFORMAT_END
 95
       16
302
GRIDFORMAT
  1
GRIDFORMAT_BEGIN
 90
        0
 91
        1
 62
     0
 92
       -2
340
14
 93
        0
 40
1.125
309
GRIDFORMAT_END
 95
       32
302
GRIDFORMAT
  1
GRIDFORMAT_BEGIN
 90
        0
 91
        1
 62
     0
 92
       -2
340
14
 93
        0
 40
1.125
309
GRIDFORMAT_END
309
TABLEFORMAT_END
  1
CELLSTYLE_BEGIN
 90
        2
 91
        1
300
_HEADER
309
CELLSTYLE_END
300
CELLSTYLE
  1
TABLEFORMAT_BEGIN
 90
        5
170
     1
 91
        0
 92
        0
 62
   257
 93
        1
300
CONTENTFORMAT
  1
CONTENTFORMAT_BEGIN
 90
        0
 91
        0
 92
      512
 93
        0
300

 40
0.0
140
1.0
 94
        2
 62
     0
340
11
144
4.5
309
CONTENTFORMAT_END
171
     1
301
MARGIN
  1
CELLMARGIN_BEGIN
 40
1.5
 40
1.5
 40
1.5
 40
1.5
 40
0.18
 40
0.18
309
CELLMARGIN_END
 94
        6
 95
        1
302
GRIDFORMAT
  1
GRIDFORMAT_BEGIN
 90
        0
 91
        1
 62
     0
 92
       -2
340
14
 93
        0
 40
1.125
309
GRIDFORMAT_END
 95
        2
302
GRIDFORMAT
  1
GRIDFORMAT_BEGIN
 90
        0
 91
        1
 62
     0
 92
       -2
340
14
 93
        0
 40
1.125
309
GRIDFORMAT_END
 95
        4
302
GRIDFORMAT
  1
GRIDFORMAT_BEGIN
 90
        0
 91
        1
 62
     0
 92
       -2
340
14
 93
        0
 40
1.125
309
GRIDFORMAT_END
 95
        8
302
GRIDFORMAT
  1
GRIDFORMAT_BEGIN
 90
        0
 91
        1
 62
     0
 92
       -2
340
14
 93
        0
 40
1.125
309
GRIDFORMAT_END
 95
       16
302
GRIDFORMAT
  1
GRIDFORMAT_BEGIN
 90
        0
 91
        1
 62
     0
 92
       -2
340
14
 93
        0
 40
1.125
309
GRIDFORMAT_END
 95
       32
302
GRIDFORMAT
  1
GRIDFORMAT_BEGIN
 90
        0
 91
        1
 62
     0
 92
       -2
340
14
 93
        0
 40
1.125
309
GRIDFORMAT_END
309
TABLEFORMAT_END
  1
CELLSTYLE_BEGIN
 90
        3
 91
        2
300
_DATA
309
CELLSTYLE_END
  0
ENDSEC
  0
SECTION
  2
ACDSDATA
 70
     2
 71
     8
  0
ACDSSCHEMA
 90
        0
  1
AcDb_Thumbnail_Schema
  2
AcDbDs::ID
280
    10
 91
        8
  2
Thumbnail_Data
280
    15
 91
        0
101
ACDSRECORD
 95
        0
 90
        1
  2
AcDbDs::TreatedAsObjectData
280
     1
291
     1
101
ACDSRECORD
 95
        0
 90
        2
  2
AcDbDs::Legacy
280
     1
291
     1
101
ACDSRECORD
  1
AcDbDs::ID
 90
        3
  2
AcDs:Indexable
280
     1
291
     1
101
ACDSRECORD
  1
AcDbDs::ID
 90
        4
  2
AcDbDs::HandleAttribute
280
     7
282
     1
  0
ACDSSCHEMA
 90
        1
  1
AcDbDs::TreatedAsObjectDataSchema
  2
AcDbDs::TreatedAsObjectData
280
     1
 91
        0
  0
ACDSSCHEMA
 90
        2
  1
AcDbDs::LegacySchema
  2
AcDbDs::Legacy
280
     1
 91
        0
  0
ACDSSCHEMA
 90
        3
  1
AcDbDs::IndexedPropertySchema
  2
AcDs:Indexable
280
     1
 91
        0
  0
ACDSSCHEMA
 90
        4
  1
AcDbDs::HandleAttributeSchema
  2
AcDbDs::HandleAttribute
280
     7
 91
        1
284
     1
  0
ACDSRECORD
 90
        0
  2
AcDbDs::ID
280
    10
320
22
  2
Thumbnail_Data
280
    15
 94
     1969
310
89504E470D0A1A0A0000000D49484452000001000000007208030000008B31FF2A00000300504C5445212830FFFFFF2128300000000000000000000000000000000000000000000000000000330000660000990000CC0000FF0033000033330033660033990033CC0033FF0066000066330066660066990066CC0066FF0099
310
000099330099660099990099CC0099FF00CC0000CC3300CC6600CC9900CCCC00CCFF00FF0000FF3300FF6600FF9900FFCC00FFFF3300003300333300663300993300CC3300FF3333003333333333663333993333CC3333FF3366003366333366663366993366CC3366FF3399003399333399663399993399CC3399FF33CC00
310
33CC3333CC6633CC9933CCCC33CCFF33FF0033FF3333FF6633FF9933FFCC33FFFF6600006600336600666600996600CC6600FF6633006633336633666633996633CC6633FF6666006666336666666666996666CC6666FF6699006699336699666699996699CC6699FF66CC0066CC3366CC6666CC9966CCCC66CCFF66FF0066
310
FF3366FF6666FF9966FFCC66FFFF9900009900339900669900999900CC9900FF9933009933339933669933999933CC9933FF9966009966339966669966999966CC9966FF9999009999339999669999999999CC9999FF99CC0099CC3399CC6699CC9999CCCC99CCFF99FF0099FF3399FF6699FF9999FFCC99FFFFCC0000CC00
310
33CC0066CC0099CC00CCCC00FFCC3300CC3333CC3366CC3399CC33CCCC33FFCC6600CC6633CC6666CC6699CC66CCCC66FFCC9900CC9933CC9966CC9999CC99CCCC99FFCCCC00CCCC33CCCC66CCCC99CCCCCCCCCCFFCCFF00CCFF33CCFF66CCFF99CCFFCCCCFFFFFF0000FF0033FF0066FF0099FF00CCFF00FFFF3300FF3333
310
FF3366FF3399FF33CCFF33FFFF6600FF6633FF6666FF6699FF66CCFF66FFFF9900FF9933FF9966FF9999FF99CCFF99FFFFCC00FFCC33FFCC66FFCC99FFCCCCFFCCFFFFFF00FFFF33FFFF66FFFF99FFFFCCFFFFFF0000000D0D0D1A1A1A2828283535354343435050505D5D5D6B6B6B787878868686939393A1A1A1AEAEAEBB
310
BBBBC9C9C9D6D6D6E4E4E4F1F1F1FFFFFF0000000000000000000000000000000000000000000000000000000000002E4550F10000025F4944415478DAED9C6D96C2200C45B38FEC7F712E20FF474BBF6C13485B1D49F39E8E3A947AE01242A04522088220088220088220A829EE49680E08823E24290280F2CF90900DC0E6
310
731DC0F3E8EBF96255B0BD9D22CB770C47252080860148B199E975789F3ECB7CBED0DD01C86401B206303E164C11BAD31B808FB880602E35F300B01A051007C00CD213483E1D8605C871B7215ABA2FAB922A52F146B2160000004601C401BF8D040D63D4920DCBADA56985F96EFF3F6B3400901600044190574C7CDB9AB972
310
DDF65AAEB35A2680E854BC0DFBCCA464BCC1557E67F9F58ADEE13E87A165BDF5DFE62C29D101F0790079BA40150085274017BA003901CC1718BB83751180B70F4C979DFBEB339E088F0D027E00F31CB8BB2EE31905966A5A04D4C8D2889BFAB2001E1FED4C4C151BD858CB9CDB1B50756F01A55D79DFAA3B003C93522BCA41
310
7D008F96620502BA5F60FD8B2200502A456AC8A7FA80121E520417600050EC5A075077828103A1BD05A85D401D0679F56C8F8CBF5F2376F880C9A4774ED0003025716D0D46B61142C79120AF23216E4488939F237378198E0A7503C06301E3D04EEC1906970902DB2B4BD2B70FD0277D8A6BD78CA21509BEFE8442012033B6
310
3B3EAAF51708399704F5721F8F6C7B0C052F34DCE1DA845D43D28B7DA23A5109D85DE0E81A0F73C4AB4CE977F9619F63F8C5DFC6742467AB5E05B03F5FF6324E0180BE081000FC0B0091CEDCCED5C2040770BD38B901D43BFB9790070770DB28222C80F4B72EE3DE6DEC3201808C00F04B521B1E945A0F7E64FF3DAFE4F5E7
310
EC3BB8D203C0163E6C6184200882200882200882200882A068FA0350241D2FEDEC49180000000049454E44AE426082B862E8AB00E03D00F7DF791240F6014D75F94300D87B06141FF880006414A868DFD910F90E00BD9DE3E2824314E4F20043ED937E83014970124A26D8529E3081260CE20800E6B580540BAD1EBED61F1B
310
13C14FEBDF66525D08C462665650BFE61C5633A3630C60B62F8C6E0CBD23DA01DBD272E320002AFF65CD9C5F7F47C880FEAED647ABC1B5F5EC2600AAD2A4ED894A00BCD6A26A7E78EEA8F603664501A77FD315B6BAABD2DF172718E0CA56E993DC11B266C48F0620A741555798DBE56C19D0D5139C054FB12768D59CEE74DB
310
44DA4DEC27F9D4385790F502606B8EB2BBA25BBCD04267C812ED39424F9DDF1C640158352D715B316E653C6F901433F26E354D440E803D0A5E37DAFB4F49F3A1BE2FC0AEC36F00503C41DA700B1306248E0720EAAFBE40D9995106BD4A02898346A5230048EA904C8C048A1B3E900161C4579E5041981755B7D8BFD5D65973
310
E19EC9A900184E09403BE528BD4299123119001CCF0061CEB54ED1B70070E0B478EE42802AE2166A029F14A49308EF8E1F044058432D9F441C3510D3481CF3A1397E7BEC8D231127CDECC88F0C85ED317954B42929691B605A08BF27A8A86CD713B81BB82800B8F8FFA1B1C509FE7F1430BB2A05CCECAA0458DAB01A3264C8
310
902143FE5FA947A852F3BDF726F17E8BA75F9D4B8BC7C992F19F0C4EC2FB7F18004ED9D700F01B7C2B00FC03E9B12483373155770000000049454E44AE426082
  0
ENDSEC
  0
EOF
